Торрент файл
скачать торрент магнет ссылка Добавлен: 04 дек 2017, 17:56
Размер: 7.75 ГБ
Сидеров: 0
Личеров: 0
Статус: (salma3)
Автор

СообщениеДобавлено: 04 дек 2017, 17:56 

Не в сети
Супермодератор
Аватара пользователя
Дата регистрации:
15 фев 2012, 16:44
Возраст: 28
Спасибо: 7205 / 2147
Сообщения: 65240
Год выхода: 1998
Жанр: Боевик, триллер, криминал
Режиссер: Стюарт Бейрд

В ролях: Томми Ли Джонс, Уэсли Снайпс, Роберт Дауни мл., Джо Пантольяно, Дэниэл Робак, Том Вуд, ЛаТаня Ричардсон, Ирен Жакоб

О фильме:
Самолёт, перевозивший заключённых, терпит аварию и совершает вынужденную посадку. Воспользовавшись ситуацией, из-под конвоя бежит особо опасный арестант - бывший секретный агент, обвинённый в убийстве двух других агентов. Но не только полиция и группа Джерарда идут по его следу, беглец представляет интерес и кое для кого ещё. Он слишком много знает, и этот "кое-кто" желал бы его убрать…



Страна: США
Продолжительность: 02:11:07
Перевод: Дублированный, профессиональный (многоголосый, закадровый), авторский (одноголосый, закадровый)

Файл
Кодек: Н.264
Качество: BDRip 720p
Видео: AVC, 1280x720 (16:9), 23.976 fps, 6 161 Kbps (0.279 bit/pixel)
Звук:
Аудио #1: AC-3, 48.0 KHz, 6 ch, 384 Kbps, CBR (Russian) - дублированный (R5)
Аудио #2: AC-3, 48.0 KHz, 2 ch, 192 Kbps, CBR (Russian) - дублированный (Варус Видео)
Аудио #3: AC-3, 48.0 KHz, 2 ch, 192 Kbps, CBR (Russian) - многоголосый (НТВ)
Аудио #4: AC-3, 48.0 KHz, 2 ch, 192 Kbps, CBR (Russian) - авторский А.Кашкин
Аудио #5: AC-3, 48.0 KHz, 6 ch, 448 Kbps, CBR (Russian) - авторский А.Гаврилов
Аудио #6: AC-3, 48.0 KHz, 6 ch, 448 Kbps, CBR (Russian) - авторский Ю.Живов
Аудио #7: AC-3, 48.0 KHz, 6 ch, 448 Kbps, CBR (English) - оригинальная звуковая дорожка
Субтитры: Russian, English


Полное имя : D:ФИЛЬМЫСлужители закона.1998 (Т.Ли Джонс, У.Снайпс).mkv
Формат : Matroska
Версия формата : Version 2
Размер файла : 7,75 Гбайт
Продолжительность : 2 ч. 11 м.
Общий поток : 8463 Кбит/сек
Дата кодирования : UTC 2017-11-26 16:11:43
Программа кодирования : mkvmerge v5.3.0 ('I could have danced') built on Feb 9 2012 10:38:07
Библиотека кодирования : libebml v1.2.3 + libmatroska v1.3.0
Attachments : poster 2.jpg

Видео
Идентификатор : 1
Формат : AVC
Формат/Информация : Advanced Video Codec
Профиль формата : High@L4.1
Параметр CABAC формата : Да
Параметр ReFrames формата : 9 кадров
Идентификатор кодека : V_MPEG4/ISO/AVC
Продолжительность : 2 ч. 11 м.
Битрейт : 6161 Кбит/сек
Ширина : 1280 пикселей
Высота : 720 пикселей
Соотношение сторон : 16:9
Режим частоты кадров : Постоянный
Частота кадров : 23,976 (24000/1001) кадра/сек
Цветовое пространство : YUV
Субдискретизация насыщенности : 4:2:0
Битовая глубина : 8 бит
Тип развёртки : Прогрессивная
Бит/(Пиксели*Кадры) : 0.279
Размер потока : 5,49 Гбайт (71%)
Библиотека кодирования : x264 core 146 r2538 121396c
Настройки программы : cabac=1 / ref=9 / deblock=1:-3:-3 / analyse=0x3:0x133 / me=umh / subme=11 / psy=1 / psy_rd=1.02:0.05 / mixed_ref=1 / me_range=32 / chroma_me=1 / trellis=2 / 8x8dct=1 / cqm=0 / deadzone=21,11 / fast_pskip=0 / chroma_qp_offset=-3 / threads=12 / lookahead_threads=3 / sliced_threads=0 / nr=0 / decimate=0 / interlaced=0 / bluray_compat=0 / constrained_intra=0 / bframes=10 / b_pyramid=2 / b_adapt=2 / b_bias=0 / direct=3 / weightb=1 / open_gop=0 / weightp=2 / keyint=240 / keyint_min=23 / scenecut=40 / intra_refresh=0 / rc=2pass / mbtree=0 / bitrate=6161 / ratetol=1.0 / qcomp=0.60 / qpmin=0 / qpmax=69 / qpstep=4 / cplxblur=20.0 / qblur=0.5 / ip_ratio=1.40 / pb_ratio=1.30 / aq=3:0.90
Язык : English
Default : Да
Forced : Нет

Аудио #1
Идентификатор : 2
Формат : AC-3
Формат/Информация : Audio Coding 3
Расширение режима : CM (complete main)
Параметр Endianness формата : Big
Идентификатор кодека : A_AC3
Продолжительность : 2 ч. 11 м.
Вид битрейта : Постоянный
Битрейт : 384 Кбит/сек
Каналы : 6 каналов
Расположение каналов : Front: L C R, Side: L R, LFE
Частота : 48,0 КГц
Частота кадров : 31,250 кадров/сек (1536 spf)
Битовая глубина : 16 бит
Метод сжатия : С потерями
Размер потока : 360 Мбайт (5%)
Заголовок : Дублированный (R5)
Язык : Russian
Default : Да
Forced : Да

Аудио #2
Идентификатор : 3
Формат : AC-3
Формат/Информация : Audio Coding 3
Расширение режима : CM (complete main)
Параметр Endianness формата : Big
Идентификатор кодека : A_AC3
Продолжительность : 2 ч. 11 м.
Вид битрейта : Постоянный
Битрейт : 192 Кбит/сек
Каналы : 2 канала
Расположение каналов : Front: L R
Частота : 48,0 КГц
Частота кадров : 31,250 кадров/сек (1536 spf)
Битовая глубина : 16 бит
Метод сжатия : С потерями
Размер потока : 180 Мбайт (2%)
Заголовок : Дублированный (Варус Видео)
Язык : Russian
Default : Нет
Forced : Нет

Аудио #3
Идентификатор : 4
Формат : AC-3
Формат/Информация : Audio Coding 3
Расширение режима : CM (complete main)
Параметр Endianness формата : Big
Идентификатор кодека : A_AC3
Продолжительность : 2 ч. 11 м.
Вид битрейта : Постоянный
Битрейт : 192 Кбит/сек
Каналы : 2 канала
Расположение каналов : Front: L R
Частота : 48,0 КГц
Частота кадров : 31,250 кадров/сек (1536 spf)
Битовая глубина : 16 бит
Метод сжатия : С потерями
Размер потока : 180 Мбайт (2%)
Заголовок : Многоголосый (НТВ)
Язык : Russian
Default : Нет
Forced : Нет

Аудио #4
Идентификатор : 5
Формат : AC-3
Формат/Информация : Audio Coding 3
Расширение режима : CM (complete main)
Параметр Endianness формата : Big
Идентификатор кодека : A_AC3
Продолжительность : 2 ч. 11 м.
Вид битрейта : Постоянный
Битрейт : 192 Кбит/сек
Каналы : 2 канала
Расположение каналов : Front: L R
Частота : 48,0 КГц
Частота кадров : 31,250 кадров/сек (1536 spf)
Битовая глубина : 16 бит
Метод сжатия : С потерями
Размер потока : 180 Мбайт (2%)
Заголовок : Авторский (А.Кашкин)
Язык : Russian
Default : Нет
Forced : Нет

Аудио #5
Идентификатор : 6
Формат : AC-3
Формат/Информация : Audio Coding 3
Расширение режима : CM (complete main)
Параметр Endianness формата : Big
Идентификатор кодека : A_AC3
Продолжительность : 2 ч. 11 м.
Вид битрейта : Постоянный
Битрейт : 448 Кбит/сек
Каналы : 6 каналов
Расположение каналов : Front: L C R, Side: L R, LFE
Частота : 48,0 КГц
Частота кадров : 31,250 кадров/сек (1536 spf)
Битовая глубина : 16 бит
Метод сжатия : С потерями
Размер потока : 420 Мбайт (5%)
Заголовок : Авторский (А.Гаврилов)
Язык : Russian
Default : Нет
Forced : Нет

Аудио #6
Идентификатор : 7
Формат : AC-3
Формат/Информация : Audio Coding 3
Расширение режима : CM (complete main)
Параметр Endianness формата : Big
Идентификатор кодека : A_AC3
Продолжительность : 2 ч. 11 м.
Вид битрейта : Постоянный
Битрейт : 448 Кбит/сек
Каналы : 6 каналов
Расположение каналов : Front: L C R, Side: L R, LFE
Частота : 48,0 КГц
Частота кадров : 31,250 кадров/сек (1536 spf)
Битовая глубина : 16 бит
Метод сжатия : С потерями
Размер потока : 420 Мбайт (5%)
Заголовок : Авторский (Ю.Живов)
Язык : Russian
Default : Нет
Forced : Нет

Аудио #7
Идентификатор : 8
Формат : AC-3
Формат/Информация : Audio Coding 3
Расширение режима : CM (complete main)
Параметр Endianness формата : Big
Идентификатор кодека : A_AC3
Продолжительность : 2 ч. 11 м.
Вид битрейта : Постоянный
Битрейт : 448 Кбит/сек
Каналы : 6 каналов
Расположение каналов : Front: L C R, Side: L R, LFE
Частота : 48,0 КГц
Частота кадров : 31,250 кадров/сек (1536 spf)
Битовая глубина : 16 бит
Метод сжатия : С потерями
Размер потока : 420 Мбайт (5%)
Язык : English
Default : Нет
Forced : Нет

Текст #1
Идентификатор : 9
Формат : UTF-8
Идентификатор кодека : S_TEXT/UTF8
Идентификатор кодека/Информация : UTF-8 Plain Text
Язык : Russian
Default : Нет
Forced : Нет

Текст #2
Идентификатор : 10
Формат : UTF-8
Идентификатор кодека : S_TEXT/UTF8
Идентификатор кодека/Информация : UTF-8 Plain Text
Язык : English
Default : Нет
Forced : Нет

Меню
00:00:00.000 : :00:00:00.000
00:01:35.095 : :00:01:35.095
00:03:37.426 : :00:03:37.426
00:07:00.837 : :00:07:00.837
00:09:51.591 : :00:09:51.591
00:11:35.570 : :00:11:35.570
00:13:20.091 : :00:13:20.091
00:15:37.770 : :00:15:37.770
00:18:45.499 : :00:18:45.499
00:21:42.801 : :00:21:42.801
00:23:38.667 : :00:23:38.667
00:27:23.559 : :00:27:23.559
00:31:07.866 : :00:31:07.866
00:35:55.528 : :00:35:55.528
00:40:11.200 : :00:40:11.200
00:42:45.021 : :00:42:45.021
00:45:10.666 : :00:45:10.666
00:49:35.347 : :00:49:35.347
00:52:05.664 : :00:52:05.664
00:55:05.969 : :00:55:05.969
00:58:24.418 : :00:58:24.418
01:02:18.693 : :01:02:18.693
01:05:19.165 : :01:05:19.165
01:10:31.352 : :01:10:31.352
01:13:35.620 : :01:13:35.620
01:16:48.521 : :01:16:48.521
01:22:58.932 : :01:22:58.932
01:25:53.940 : :01:25:53.940
01:29:53.263 : :01:29:53.263
01:32:18.241 : :01:32:18.241
01:34:52.645 : :01:34:52.645
01:38:04.003 : :01:38:04.003
01:40:35.780 : :01:40:35.780
01:42:40.446 : :01:42:40.446
01:44:20.754 : :01:44:20.754
01:49:26.143 : :01:49:26.143
01:54:40.499 : :01:54:40.499
01:57:28.166 : :01:57:28.166
02:01:14.517 : :02:01:14.517
02:03:48.296 : :02:03:48.296

Релиз от: &


_________________
Проголосуй за трекер Открытый торрент трекер - RUS-MEDIA.ORG

Проголосуй Открытый торрент трекер - RUS-MEDIA.ORG


Вернуться к началу
 Профиль Отправить личное сообщение  
 
   Похожие торренты   Автор   Торрент   Размер 
В этой теме нет новых непрочитанных сообщений. Служители закона / U.S. Marshals [Боевик, триллер, криминал, 1998] BDRip-AVC, Dub

salma3

11 | 26

1.46 ГБ

В этой теме нет новых непрочитанных сообщений. Чёрный пёс / Black Dog [боевик, триллер, драма, криминал, 1998] BDRip 720p, Mvo+Dvo+Avo+Sub

salma3

40 | 31

5.7 ГБ

В этой теме нет новых непрочитанных сообщений. Осада / The Siege [боевик, триллер, драма, криминал, 1998] BDRip 720p, Dub

salma3

15 | 5

7.93 ГБ

В этой теме нет новых непрочитанных сообщений. Ронин / Ronin [боевик, триллер, криминал, 1998] BDRip 720p, Dub [Remastered]

salma3

19 | 12

14.47 ГБ

В этой теме нет новых непрочитанных сообщений. Вне закона / Hors-la-loi [Драма, криминал, 2010] BDRip 720p, Dvo+Sub

salma3

72 | 13

6.99 ГБ

В этой теме нет новых непрочитанных сообщений. За пределами закона / Beyond The Law [Боевик, приключения, драма, криминал, 1993] BDRip, Mvo

salma3

433 | 68

1.45 ГБ

В этой теме нет новых непрочитанных сообщений. Час пик / Rush Hour [Боевик, комедия, криминал, 1998] BDRip 720p, Dub

salma3

0 | 0

5.18 ГБ


Начать новую тему Ответить на тему  [ 1 сообщение ] 




Для Мосгорсуда, Роскомнадзора и рекламодателей:: mosgorsud-torrent[собачка]yandex.ru
cron