Торрент файл
скачать торрент магнет ссылка Добавлен: 03 дек 2017, 12:59
Размер: 20.09 ГБ
Сидеров: 0
Личеров: 40
Статус: (salma3)
Автор

СообщениеДобавлено: 03 дек 2017, 12:59 

Не в сети
Супермодератор
Аватара пользователя
Дата регистрации:
15 фев 2012, 16:44
Возраст: 28
Спасибо: 7226 / 2147
Сообщения: 68191
Год выхода: 2010
Страна: Германия
Жанр: ужасы, фэнтези, драма, мелодрама
Режиссер: Деннис Ганзель / Dennis Gansel

В ролях: Каролине Херфурт, Нина Хосс, Дженнифер Ульрих, Анна Фишер, Макс Римельт, Арвед Бирнбаум, Штеффи Кюнерт, Йохен Никель, Иван Шведов, Николас Ромм

О фильме: Лина — трудный подросток, она не находит общего языка с родителями и сверстниками, промышляет мелким воровством. Однажды, пробравшись на закрытую вечеринку, она знакомится с богатой и эффектной Луизой — вампиром, главенствующим в трио себе подобных существ, куда также входят бесшабашная Нора и томная Шарлотта. Луиза решает приобщить закомплексованную и зажатую девушку к своей банде. Теперь Лине суждено познать блеск и проклятие вечной жизни «неупокоенных». Перед ней открываются все двери в мир гламура и беспредельной свободы. И с каждой ночью ее новые подруги становятся все ненасытнее, а число жертв вурдалаков безудержно растет. Но когда за расследование их преступлений берется давний знакомый Лины — молодой полицейский Том Сернер, приходит пора платить по счетам…



Информация о файле:
Качество: BD Remux
Продолжительность: 1:39:42
Язык (перевод):
1) русский дублированный
2) оригинальная немецкая дорожка
Субтитры: русские
Формат: MKV

Видео: 1920x1080p (1.778), 24.000 fps, 25.5 Mbps
Аудио 1: DTS; 48.0 KHz; 6 channels; 755 Kbps
Аудио 2: DTS-HD, 48.0 KHz; 6 channels, 2047 Kbps, 1 510 Kbps
General
Unique ID : 240906764129635248457319196048606209210 (0xB53CF48067177095A022C91D3265A4BA)
Complete name : N:HDВкус Ночи.mkv
Format : Matroska
File size : 20.1 GiB
Duration : 1h 39mn
Overall bit rate : 28.8 Mbps
Movie name : Lifeforce.1985.1080i.HDTV.DD2.0.MPEG2-CtrlHD
Encoded date : UTC 2011-12-03 15:17:01
Writing application : mkvmerge v4.0.0 ('The Stars were mine') сборка от Jun 6 2010 16:18:42
Writing library : libebml v1.0.0 + libmatroska v1.0.0

Video
ID : 1
Format : AVC
Format/Info : Advanced Video Codec
Format profile : High@L4.1
Format settings, CABAC : Yes
Format settings, ReFrames : 4 frames
Codec ID : V_MPEG4/ISO/AVC
Duration : 1h 39mn
Bit rate mode : Variable
Bit rate : 25.5 Mbps
Maximum bit rate : 36.0 Mbps
Width : 1 920 pixels
Height : 1 080 pixels
Display aspect ratio : 16:9
Frame rate : 24.000 fps
Standard : NTSC
Color space : YUV
Chroma subsampling : 4:2:0
Bit depth : 8 bits
Scan type : Progressive
Bits/(Pixel*Frame) : 0.512
Stream size : 17.7 GiB (88%)
Color primaries : BT.709-5, BT.1361, IEC 61966-2-4, SMPTE RP177
Transfer characteristics : BT.709-5, BT.1361
Matrix coefficients : BT.709-5, BT.1361, IEC 61966-2-4 709, SMPTE RP177

Audio #1
ID : 2
Format : DTS
Format/Info : Digital Theater Systems
Codec ID : A_DTS
Duration : 1h 39mn
Bit rate mode : Constant
Bit rate : 755 Kbps
Channel(s) : 6 channels
Channel positions : Front: L C R, Side: L R, LFE
Sampling rate : 48.0 KHz
Bit depth : 16 bits
Compression mode : Lossy
Stream size : 538 MiB (3%)
Language : Russian

Audio #2
ID : 3
Format : DTS
Format/Info : Digital Theater Systems
Format profile : HRA / Core
Codec ID : A_DTS
Duration : 1h 39mn
Bit rate mode : Constant
Bit rate : 2 047 Kbps / 1 510 Kbps
Channel(s) : 6 channels
Channel positions : Front: L C R, Side: L R, LFE
Sampling rate : 48.0 KHz
Bit depth : 24 bits
Compression mode : Lossy
Stream size : 1.43 GiB (7%)
Language : German

Text
ID : 4
Format : UTF-8
Codec ID : S_TEXT/UTF8
Codec ID/Info : UTF-8 Plain Text
Language : Russian




_________________
Проголосуй за трекер Открытый торрент трекер - RUS-MEDIA.ORG

Проголосуй Открытый торрент трекер - RUS-MEDIA.ORG


Вернуться к началу
 Профиль Отправить личное сообщение  
 
   Похожие торренты   Автор   Торрент   Размер 
В этой теме нет новых непрочитанных сообщений. Байки из склепа: Демон ночи / Tales from the Crypt: Demon Knight [Комедия, ужасы, фэнтези, 1995] BDRemux 1080p, Mvo

salma3

0 | 0

22.24 ГБ

В этой теме нет новых непрочитанных сообщений. Мы молоды. Мы сильны. / Wir sind jung. Wir sind stark (Бурхан Курбани / Burhan Qurbani) [2014г., Германия, драма, исторический, TVRip] sub

Alfredovich

0 | 0

898.4 МБ

В этой теме нет новых непрочитанных сообщений. Вкус меда / A Taste of Honey [драма, 1961] BDRemux 1080р, Avo+Sub

salma3

20 | 19

25.55 ГБ

В этой теме нет новых непрочитанных сообщений. Страх в ночи / Fear in the Night [ужасы, триллер, 1972] BDRemux 1080p, Avo

salma3

0 | 0

21.61 ГБ

В этой теме нет новых непрочитанных сообщений. Багровый пик / Crimson Peak (Гильермо дель Торо) [ужасы, фэнтези, триллер, драма, мелодрама, детектив, 2015] BDRemux, Dub+Sub [Лицензия]

Dracon

82 | 20

31.55 ГБ

В этой теме нет новых непрочитанных сообщений. Спокойной ночи / The Good Night [фэнтези, драма, мелодрама, комедия, музыка, 2005] DVDRip-AVC, Mvo

salma3

214 | 45

2.93 ГБ

В этой теме нет новых непрочитанных сообщений. Парень с того света / My Boyfriend's Back [Ужасы, фэнтези, мелодрама, комедия, 1993] BDRemux 1080p, Avo

salma3

14 | 8

18.09 ГБ


Начать новую тему Ответить на тему  [ 1 сообщение ] 




Для Мосгорсуда, Роскомнадзора и рекламодателей:: mosgorsud-torrent[собачка]yandex.ru
cron