Торрент файл
скачать торрент магнет ссылка Добавлен: 03 дек 2017, 12:41
Размер: 7.65 ГБ
Сидеров: 13
Личеров: 4
Статус: (salma3)
Автор

СообщениеДобавлено: 03 дек 2017, 12:41 

Не в сети
Супермодератор
Аватара пользователя
Дата регистрации:
15 фев 2012, 16:44
Возраст: 28
Спасибо: 7163 / 2147
Сообщения: 61793
Год выхода: 2000
Жанр: драма
Режиссер: Роджер Камбл

В ролях: Робин Данн, Сара Томпсон, Кери Линн Прэтт, Эми Адамс, Тереза Хилл, Барклай Хоуп, Тэйн МакКлюр, Дэвид МакИлрэйт, Джонатан Поттс, Кэли Уилсон, Диэнна Райт, Бэрри Флэтмэн, Мими Роджерс, ...

О фильме: Себастьен Вальмон, сделавший все для того, чтобы его выгнали из школы, переезжает в Нью-Йорк к своему отцу, женившемуся в четвертый раз. Он хочет начать новую жизнь приличного человека. У новой мачехи есть дочь Кэтрин, прилагающая все усилия для того, чтобы стать похожей на стерву-мать. Кэтрин сразу невзлюбила сводного братика, превосходящего ее во всем. Себастьен влюбляется в Даниель, дочь директора его новой школы. Она отличается от других девушек серьезностью и целеустремленностью, учится и подрабатывает в книжном магазине. Кэтрин намерена превратить Шери, девственницу-идиотку из безумно богатой семьи, в последнюю шлюху. Школа, в которой учатся Себастьен и Кэтрин — для детей богатых родителей. И Кэтрин возглавляет это сборище снобов. Но ей не очень-то и нравится выбранная стезя — стать такой же как мать. Чем разрешится конфликт Себастьена с Кэтрин? И что будет дальше между ним и Даниель?…



Страна: США
Продолжительность: 01:27:01
Перевод: Профессиональный (многоголосый, закадровый)
- Профессиональный (двухголосый, закадровый)

Кодек: x264
Качество: WEBRip 1080p
Видео: 1920x1080 , 11100 kbps, 29,970 fps
Аудио #1: AC-3, 6 ch, 448 kbps (Rus) - MVO
Аудио #2: AC-3, 2 ch, 192 kbps (Rus) - DVO
Аудио #3: AC-3, 6 ch, 640 kbps (Eng)
Субтитры: русские, английские

Общее
Уникальный идентификатор : 213274557282626850218548106240861464563 (0xA0732F8518EB1144B540A38F1620E7F3)
Полное имя : C:TorrentЖестокие игры 2 (Cruel Intentions 2) 2000 WEBRip 1080p.mkv
Формат : Matroska
Версия формата : Version 2
Размер файла : 7,65 Гбайт
Продолжительность : 1 ч. 27 м.
Режим общего битрейта : Переменный
Общий поток : 12,6 Мбит/сек
Дата кодирования : UTC 2017-12-03 05:48:33
Программа кодирования : mkvmerge v4.0.0 ('The Stars were mine') сборка от Jun 6 2010 16:18:42
Библиотека кодирования : libebml v1.0.0 + libmatroska v1.0.0

Видео
Идентификатор : 1
Формат : AVC
Формат/Информация : Advanced Video Codec
Профиль формата : High@L4
Параметр CABAC формата : Да
Параметр ReFrames формата : 4 кадра
Идентификатор кодека : V_MPEG4/ISO/AVC
Продолжительность : 1 ч. 27 м.
Вид битрейта : Переменный
Битрейт : 11,1 Мбит/сек
Максимальный битрейт : 15,0 Мбит/сек
Ширина : 1920 пикселей
Высота : 1080 пикселей
Соотношение сторон : 16:9
Режим частоты кадров : Постоянный
Частота кадров : 29,970 (30000/1001) кадров/сек
Цветовое пространство : YUV
Субдискретизация насыщенности : 4:2:0
Битовая глубина : 8 бит
Тип развёртки : Прогрессивная
Бит/(Пиксели*Кадры) : 0.178
Размер потока : 6,72 Гбайт (88%)
Библиотека кодирования : x264 core 148 r2623 d5b2374
Настройки программы : cabac=1 / ref=4 / deblock=1:-1:-1 / analyse=0x3:0x133 / me=umh / subme=9 / psy=1 / psy_rd=1.00:0.15 / mixed_ref=1 / me_range=24 / chroma_me=1 / trellis=2 / 8x8dct=1 / cqm=0 / deadzone=21,11 / fast_pskip=1 / chroma_qp_offset=-3 / threads=34 / lookahead_threads=5 / sliced_threads=0 / nr=150 / decimate=1 / interlaced=0 / bluray_compat=0 / constrained_intra=0 / bframes=8 / b_pyramid=2 / b_adapt=2 / b_bias=0 / direct=3 / weightb=1 / open_gop=0 / weightp=2 / keyint=150 / keyint_min=76 / scenecut=0 / intra_refresh=0 / rc_lookahead=150 / rc=crf / mbtree=1 / crf=18.0 / qcomp=0.60 / qpmin=0 / qpmax=69 / qpstep=4 / vbv_maxrate=15000 / vbv_bufsize=31250 / crf_max=0.0 / nal_hrd=vbr / filler=0 / ip_ratio=1.40 / aq=3:1.00
Язык : English
Default : Нет
Forced : Нет
Цветовой диапазон : Limited
Основные цвета : BT.709
Характеристики трансфера : BT.709
Коэффициенты матрицы : BT.709

Аудио #1
Идентификатор : 2
Формат : AC-3
Формат/Информация : Audio Coding 3
Расширение режима : CM (complete main)
Параметр Endianness формата : Big
Идентификатор кодека : A_AC3
Продолжительность : 1 ч. 27 м.
Вид битрейта : Постоянный
Битрейт : 448 Кбит/сек
Каналы : 6 каналов
Расположение каналов : Front: L C R, Side: L R, LFE
Частота : 48,0 КГц
Частота кадров : 31,250 кадров/сек (1536 spf)
Метод сжатия : С потерями
Размер потока : 279 Мбайт (4%)
Заголовок : MVO
Язык : Russian
Default : Нет
Forced : Нет

Аудио #2
Идентификатор : 3
Формат : AC-3
Формат/Информация : Audio Coding 3
Расширение режима : CM (complete main)
Параметр Endianness формата : Big
Идентификатор кодека : A_AC3
Продолжительность : 1 ч. 27 м.
Вид битрейта : Постоянный
Битрейт : 192 Кбит/сек
Каналы : 2 канала
Расположение каналов : Front: L R
Частота : 48,0 КГц
Частота кадров : 31,250 кадров/сек (1536 spf)
Метод сжатия : С потерями
Размер потока : 120 Мбайт (2%)
Заголовок : DVO
Язык : Russian
Default : Нет
Forced : Нет

Аудио #3
Идентификатор : 4
Формат : AC-3
Формат/Информация : Audio Coding 3
Расширение режима : CM (complete main)
Параметр Endianness формата : Big
Идентификатор кодека : A_AC3
Продолжительность : 1 ч. 27 м.
Вид битрейта : Постоянный
Битрейт : 640 Кбит/сек
Каналы : 6 каналов
Расположение каналов : Front: L C R, Side: L R, LFE
Частота : 48,0 КГц
Частота кадров : 31,250 кадров/сек (1536 spf)
Метод сжатия : С потерями
Размер потока : 398 Мбайт (5%)
Язык : English
Default : Нет
Forced : Нет

Текст #1
Идентификатор : 5
Формат : UTF-8
Идентификатор кодека : S_TEXT/UTF8
Идентификатор кодека/Информация : UTF-8 Plain Text
Язык : Russian
Default : Нет
Forced : Нет

Текст #2
Идентификатор : 6
Формат : UTF-8
Идентификатор кодека : S_TEXT/UTF8
Идентификатор кодека/Информация : UTF-8 Plain Text
Язык : English
Default : Нет
Forced : Нет



_________________
Проголосуй за трекер Открытый торрент трекер - RUS-MEDIA.ORG

Проголосуй Открытый торрент трекер - RUS-MEDIA.ORG


Вернуться к началу
 Профиль Отправить личное сообщение  
 
   Похожие торренты   Автор   Торрент   Размер 
В этой теме нет новых непрочитанных сообщений. Жестокие игры 3 / Cruel Intentions 3 [драма, 2004] WEBRip 1080p, Mvo

salma3

17 | 6

9.14 ГБ

В этой теме нет новых непрочитанных сообщений. Незнакомцы: Жестокие игры / The Strangers: Prey at Night [ужасы, 2018] WEB-DL 1080p, Dub [iTunes]

salma3

1615 | 710

2.97 ГБ

В этой теме нет новых непрочитанных сообщений. Под подозрением / Under Suspicion [детектив, триллер, драма, 2000] WEBRip 1080p, Mvo

salma3

0 | 0

9.21 ГБ

В этой теме нет новых непрочитанных сообщений. Там, где сердце / Where the Heart Is [драма, мелодрама, комедия, 2000] WEBRip 1080p, Dub+Sub

salma3

62 | 17

8.98 ГБ

В этой теме нет новых непрочитанных сообщений. Жестокие улицы / Rollin' with the Nines [боевик, триллер, драма, криминал, 2006] WEB-DL 1080p, Dvo

salma3

0 | 0

8.21 ГБ

В этой теме нет новых непрочитанных сообщений. Легенда Багера Ванса / The Legend of Bagger Vance [фэнтези, мелодрама, драма, спорт, 2000] WEBRip 1080p, Mvo

salma3

81 | 10

5.87 ГБ

В этой теме нет новых непрочитанных сообщений. Игры джентльменов / The Ladykillers [триллер, комедия, криминал, 2004] WEBRip 1080p, Dub+Mvo+Avo+Sub

salma3

8 | 1

9.43 ГБ


Начать новую тему Ответить на тему  [ 1 сообщение ] 




Для Мосгорсуда, Роскомнадзора и рекламодателей:: mosgorsud-torrent[собачка]yandex.ru
cron