Торрент файл
скачать торрент магнет ссылка Добавлен: 02 дек 2017, 00:20
Размер: 15.83 ГБ
Сидеров: 24
Личеров: 3
Статус: (salma3)
Автор

СообщениеДобавлено: 02 дек 2017, 00:20 

Не в сети
Супермодератор
Аватара пользователя
Дата регистрации:
15 фев 2012, 16:44
Возраст: 28
Спасибо: 7060 / 2147
Сообщения: 59015
Год выхода: 1979
Жанр: Триллер, драма, приключения
Режиссер: Дэвид Лоуелл Рич

В ролях: Ален Делон, Сюзан Блейкли, Роберт Вагнер, Силвия Кристел, Джордж Кеннеди, Эдди Альберт, Биби Андерссон, Чаро, Джон Дэвидсон, Андреа Марковиччи

О фильме:
Для пилотов «Конкорда», как и для пассажиров, это самый обычный трансатлантический рейс из Вашингтона в Париж. Они еще не знают, что их ждет отказ навигационных систем, ракетная атака и вынужденная посадка в Альпах. Самолет, следующий обычным рейсом Вашингтон-Париж, попадает в настоящий переплет: ему приходится спасаться от самонаводящейся ракеты, уходить от атаки французского истребителя и совершать вынужденную посадку при отсутствии тормозов. А всему виной одна из пассажирок самолета Мэгги, которая везет с собой очень важные секретные документы, которые доказывают, что могущественная корпорация Харрисон Индастриз занимается производством ядерного оружия. Руководство компании намерено любой ценой помешать обнародованию этих документов…



Страна: США
Продолжительность: 01:53:13
Перевод: Профессиональный [многоголосый], закадровый

Файл
Кодек: h.264
Качество: BDRip 1080p
Видео: MPEG-4 AVC, 18323 Кбит/с, 1920x1040, 23,976 кадр/с
Звук:
Русский (AC3, 2 ch, 192 Кбит/с) / Профессиональный многоголосый (ТВ новости по заказу СTC)
Английский (DTS, 2 ch, 1509 Кбит/с)
Субтитры: Нет

Семпл

Большое спасибо за Blu-ray FREEDONOR
BDRip Silverok
Сохранены главы как на Blu-ray
---[Information] [06.11.2017 22:57:51] x264 [info]: frame I:37 Avg QP:15.22 size:247616
---[Information] [06.11.2017 22:57:51] x264 [info]: frame P:437 Avg QP:17.14 size:166739
---[Information] [06.11.2017 22:57:51] x264 [info]: frame B:2076 Avg QP:18.63 size: 77828
General
Unique ID : 213312625963747200422599535950219173394 (0xA07A847367C348DC9D1C6D68CDBBDE12)
Complete name : D:uTorrentKonkord_Aeroport.1979.BDRip.1080p.MediaClub.mkv
Format : Matroska
Format version : Version 4 / Version 2
File size : 15.8 GiB
Duration : 1 h 53 min
Overall bit rate : 20.0 Mb/s
Encoded date : UTC 2017-12-01 18:52:59 / UTC 2017-11-06T23:20:54Z
Writing application : mkvmerge v17.0.0 ('Be Ur Friend') 64-bit
Writing library : libebml v1.3.5 + libmatroska v1.4.8 / Lavf57.7.2

Video
ID : 1
Format : AVC
Format/Info : Advanced Video Codec
Format profile : High@L4.1
Format settings : CABAC / 4 Ref Frames
Format settings, CABAC : Yes
Format settings, RefFrames : 4 frames
Codec ID : V_MPEG4/ISO/AVC
Duration : 1 h 53 min
Bit rate : 18.3 Mb/s
Width : 1 920 pixels
Height : 1 040 pixels
Display aspect ratio : 1.85:1
Frame rate mode : Constant
Frame rate : 23.976 (24000/1001) FPS
Color space : YUV
Chroma subsampling : 4:2:0
Bit depth : 8 bits
Scan type : Progressive
Bits/(Pixel*Frame) : 0.383
Stream size : 14.2 GiB (90%)
Title : BDRip by Silverok
Writing library : x264 core 148 r2708 86b7198
Encoding settings : cabac=1 / ref=4 / deblock=1:-3:-3 / analyse=0x3:0x113 / me=umh / subme=11 / psy=1 / psy_rd=1.00:0.15 / mixed_ref=1 / me_range=32 / chroma_me=1 / trellis=2 / 8x8dct=1 / cqm=0 / deadzone=21,11 / fast_pskip=1 / chroma_qp_offset=-3 / threads=12 / lookahead_threads=1 / sliced_threads=0 / nr=0 / decimate=0 / interlaced=0 / bluray_compat=0 / constrained_intra=0 / bframes=16 / b_pyramid=2 / b_adapt=1 / b_bias=0 / direct=1 / weightb=1 / open_gop=0 / weightp=2 / keyint=240 / keyint_min=24 / scenecut=40 / intra_refresh=0 / rc_lookahead=40 / rc=2pass / mbtree=1 / bitrate=18323 / ratetol=1.0 / qcomp=0.60 / qpmin=0 / qpmax=69 / qpstep=4 / cplxblur=20.0 / qblur=0.5 / vbv_maxrate=62500 / vbv_bufsize=78125 / nal_hrd=none / filler=0 / ip_ratio=1.40 / aq=1:1.00
Default : Yes
Forced : No
Color range : Limited
Color primaries : BT.709
Transfer characteristics : BT.709
Matrix coefficients : BT.709
Statistics Tags Issue : mkvmerge v17.0.0 ('Be Ur Friend') 64-bit 2017-12-01 18:52:59 / mkvmerge v17.0.0 ('Be Ur Friend') 64-bit 2017-12-01 18:52:59 / UTC 2017-11-06T23:20:54Z
FromStats_BitRate : 18317280
FromStats_Duration : 01:53:13.787000000
FromStats_FrameCount : 162887
FromStats_StreamSize : 15555462360

Audio #1
ID : 2
Format : AC-3
Format/Info : Audio Coding 3
Codec ID : A_AC3
Duration : 1 h 53 min
Bit rate mode : Constant
Bit rate : 192 kb/s
Channel(s) : 2 channels
Channel positions : Front: L R
Sampling rate : 48.0 kHz
Frame rate : 31.250 FPS (1536 SPF)
Bit depth : 16 bits
Compression mode : Lossy
Stream size : 155 MiB (1%)
Title : Профессиональный многоголосый, закадровый (ТВ новости по заказу СTC)
Language : Russian
Service kind : Complete Main
Default : Yes
Forced : No
Statistics Tags Issue : mkvmerge v17.0.0 ('Be Ur Friend') 64-bit 2017-12-01 18:52:59 / mkvmerge v17.0.0 ('Be Ur Friend') 64-bit 2017-12-01 18:52:59 / UTC 2017-11-06T23:20:54Z
FromStats_BitRate : 192000
FromStats_Duration : 01:53:13.792000000
FromStats_FrameCount : 212306
FromStats_StreamSize : 163051008

Audio #2
ID : 3
Format : DTS
Format/Info : Digital Theater Systems
Codec ID : A_DTS
Duration : 1 h 53 min
Bit rate mode : Constant
Bit rate : 1 509 kb/s
Channel(s) : 2 channels
Channel positions : Front: L R
Sampling rate : 48.0 kHz
Frame rate : 93.750 FPS (512 SPF)
Bit depth : 24 bits
Compression mode : Lossy
Stream size : 1.19 GiB (8%)
Language : English
Default : No
Forced : No
Statistics Tags Issue : mkvmerge v17.0.0 ('Be Ur Friend') 64-bit 2017-12-01 18:52:59 / mkvmerge v17.0.0 ('Be Ur Friend') 64-bit 2017-12-01 18:52:59 / UTC 2017-11-06T23:20:54Z
FromStats_BitRate : 1508999
FromStats_Duration : 01:53:13.782000000
FromStats_FrameCount : 636917
FromStats_StreamSize : 1281477004

Menu
00:00:00.000 : :Chapter 1
00:05:31.832 : :Chapter 2
00:10:59.117 : :Chapter 3
00:17:00.770 : :Chapter 4
00:21:58.901 : :Chapter 5
00:26:35.010 : :Chapter 6
00:32:50.760 : :Chapter 7
00:39:30.910 : :Chapter 8
00:46:29.537 : :Chapter 9
00:51:35.259 : :Chapter 10
01:00:56.278 : :Chapter 11
01:08:03.496 : :Chapter 12
01:15:17.054 : :Chapter 13
01:21:46.902 : :Chapter 14
01:28:18.460 : :Chapter 15
01:34:12.397 : :Chapter 16
01:39:36.637 : :Chapter 17
01:48:41.974 : :Chapter 18


Релиз от: | Silverok


_________________
Проголосуй за трекер Открытый торрент трекер - RUS-MEDIA.ORG

Проголосуй Открытый торрент трекер - RUS-MEDIA.ORG


Вернуться к началу
 Профиль Отправить личное сообщение  
 
   Похожие торренты   Автор   Торрент   Размер 
В этой теме нет новых непрочитанных сообщений. Конкорд: Аэропорт-79 / The Concorde: Airport '79 [боевик, приключения, триллер, драма, 1979] DVDRip, Mvo

salma3

98 | 17

1.46 ГБ

В этой теме нет новых непрочитанных сообщений. Спасите Конкорд / Concorde Affaire '79 [боевик, триллер, криминал, 1979] BDRemux 1080p, Dub

salma3

110 | 47

14.25 ГБ

В этой теме нет новых непрочитанных сообщений. Аэропорт / Airport [Триллер, Драма, 1970] BDRip 1080p, Dvo

salma3

5 | 1

5.77 ГБ

В этой теме нет новых непрочитанных сообщений. Аэропорт / Airport [Триллер, Драма, 1970] BDRip-AVC, Dvo [НТВ+]

salma3

17 | 9

1.45 ГБ

В этой теме нет новых непрочитанных сообщений. Аэропорт / Airport [Триллер, Драма, 1970] BDRip, Dvo [НТВ+]

salma3

23 | 19

1.45 ГБ

В этой теме нет новых непрочитанных сообщений. Аэропорт 1975 / Airport 1975 [боевик, триллер, драма, 1974] BDRip 720p, Mvo+Sub

salma3

89 | 43

4.51 ГБ

В этой теме нет новых непрочитанных сообщений. Аэропорт 77 / Airport '77 [боевик, триллер, драма, 1977] DVDRip, Mvo

salma3

45 | 11

1.46 ГБ


Начать новую тему Ответить на тему  [ 1 сообщение ] 




Для Мосгорсуда, Роскомнадзора и рекламодателей:: mosgorsud-torrent[собачка]yandex.ru
cron