Торрент файл
скачать торрент магнет ссылка Добавлен: 30 ноя 2017, 17:16
Размер: 4.38 ГБ
Сидеров: 11
Личеров: 3
Статус: (salma3)
Автор

СообщениеДобавлено: 30 ноя 2017, 17:16 

Не в сети
Супермодератор
Аватара пользователя
Дата регистрации:
15 фев 2012, 16:44
Возраст: 29
Спасибо: 7379 / 2147
Сообщения: 76077
Год выпуска: 2017
Производство: США, Гонконг, Япония, Мексика, Канада, Новая Зеландия
Жанр: Фантастика, боевик, приключения

Режиссер: Дин Израэлайт
Продюсеры: Джоэл Эндрис, Марти Бауэн, Брайан Касентини
Актеры: Дакре Монтгомери, Наоми Скотт, АрДжей Сайлер, Луди Линь, Бекки Джи, Элизабет Бэнкс, Брайан Крэнстон, Билл Хэйдер, Мэтт Шайвли, Коуди Кирсли

Описание:
Пять обычных старшеклассников узнают, что их маленький город Энджел Гроув и весь мир находятся на грани уничтожения инопланетной угрозой. Избранные судьбой наши герои быстро понимают, что они единственные, кто может спасти планету.

Перевод: Дублированный
Субтитры: Английские, русские

Дата мировой премьеры: 22 марта 2017
Дата российской премьеры: 23 марта 2017, «WDSSPR»


Продолжительность: 02:03:52
Качество видео: DVD5

Видео: MPEG-2, 720x480@853x480 (NTSC 16:9), ~4100 Кбит/сек
Аудио 1: AC3 5.1, 448 Кбит/сек [Английский - оригинал]
Аудио 2: AC3 5.1, 448 Кбит/сек [Русский - дублированный]

Title: Power Rangers (2017) DVD5 NTSC
Size: 4.38 Gb ( 4 588 724,00 KBytes ) - DVD-5
Enabled regions: 1, 2, 3, 4, 5, 6, 7, 8

VTS_01 :
Play Length: 00:00:00
Video: NTSC 16:9 (720x480) VBR, Auto Letterboxed

VTS_02 :
Play Length: 02:03:52+00:00:09
Video: NTSC 16:9 (720x480) VBR, Auto Letterboxed
Audio:
English (Dolby AC3, 6 ch)
Russian (Dolby AC3, 6 ch)
Subtitles:
English
Russian
Russian

* Menus Information *

VIDEO_TS Menu
Video:
NTSC 16:9 (720x480) VBR
Auto Letterboxed
English Language Unit :
Title Menu

VTS_01 Menu
Video:
NTSC 16:9 (720x480) VBR
Auto Pan&Scan
Audio:
Not specified (Dolby AC3, 2 ch)
English Language Unit :
Root Menu
Subpicture Menu
Audio Menu
Angle menu
Chapter (PTT) Menu

VTS_02 Menu
Video:
NTSC 4:3 (720x480) VBR
Auto Pan&Scan, Auto Letterboxed
English Language Unit :
Root Menu
Видео
Идентификатор : 224 (0xE0)
Формат : MPEG Video
Версия формата : Version 2
Профиль формата : Main@Main
Настройки формата : CustomMatrix / BVOP
Параметр BVOP формата : Да
Параметр матрицы формата : Выборочная
Параметр GOP формата : Variable
Продолжительность : 28 м. 10 с.
Вид битрейта : Переменный
Битрейт : 4084 Кбит/сек
Максимальный битрейт : 7824 Кбит/сек
Ширина : 720 пикселей
Высота : 480 пикселей
Соотношение сторон : 16:9
Частота кадров : 23,976 (24000/1001) кадра/сек
Цветовое пространство : YUV
Субдискретизация насыщенности : 4:2:0
Битовая глубина : 8 бит
Тип развёртки : Прогрессивная
Порядок развёртки : 2:3 Pulldown
Метод сжатия : С потерями
Бит/(Пиксели*Кадры) : 0.493
Временной код первого кадра : 00:29:52:17
Оригинал временного кода : Group of pictures header
GOP, открыто/закрыто : Открыто
Размер потока : 823 Мбайт (80%)

Аудио #1
Идентификатор : 189 (0xBD)-128 (0x80)
Формат : AC-3
Формат/Информация : Audio Coding 3
Параметр Endianness формата : Big
Режим смешивания : DVD-Video
Продолжительность : 28 м. 10 с.
Вид битрейта : Постоянный
Битрейт : 448 Кбит/сек
Каналы : 6 каналов
Расположение каналов : Front: L C R, Side: L R, LFE
Частота : 48,0 КГц
Частота кадров : 31,250 кадров/сек (1536 SPF)
Битовая глубина : 16 бит
Метод сжатия : С потерями
Задержка видео : -357 мс.
Размер потока : 90,3 Мбайт (9%)
ServiceKind : Complete Main

Аудио #2
Идентификатор : 189 (0xBD)-129 (0x81)
Формат : AC-3
Формат/Информация : Audio Coding 3
Параметр Endianness формата : Big
Режим смешивания : DVD-Video
Продолжительность : 28 м. 10 с.
Вид битрейта : Постоянный
Битрейт : 448 Кбит/сек
Каналы : 6 каналов
Расположение каналов : Front: L C R, Side: L R, LFE
Частота : 48,0 КГц
Частота кадров : 31,250 кадров/сек (1536 SPF)
Битовая глубина : 16 бит
Метод сжатия : С потерями
Задержка видео : -357 мс.
Размер потока : 90,3 Мбайт (9%)
ServiceKind : Complete Main

Текст #1
Идентификатор : 189 (0xBD)-32 (0x20)
Формат : RLE
Формат/Информация : Run-length encoding
Режим смешивания : DVD-Video
Продолжительность : 28 м. 7 с.
Задержка видео : 718 мс.

Текст #2
Идентификатор : 189 (0xBD)-33 (0x21)
Формат : RLE
Формат/Информация : Run-length encoding
Режим смешивания : DVD-Video
Продолжительность : 28 м. 7 с.
Задержка видео : 551 мс.

Меню

Исходник: Могучие рейнджеры / Power Rangers (2017) DVD9 | Custom
Удалены: доп. материалы, описательная звуковая дорожка (в меню кнопки затёрты).
Команды диска переписаны заново, оставлено два VTS.
Видео сжато на 20,7%
Меню: статичное, недействующие кнопки затерты и закрыты.
Обработка и сжатие: DVD ReMake Pro + DVD Rebuilder + CCE SP2 [7 проходов] + Работа с меню (Adobe PhotoShop и MuxMan).


_________________
Проголосуй за трекер Открытый торрент трекер - RUS-MEDIA.ORG

Проголосуй Открытый торрент трекер - RUS-MEDIA.ORG


Вернуться к началу
 Профиль Отправить личное сообщение  
 
   Похожие торренты   Автор   Торрент   Размер 
В этой теме нет новых непрочитанных сообщений. Могучие рейнджеры / Power Rangers [фантастика, боевик, приключения, 2017] WEB-DLRip, Mvo

salma3

2889 | 1148

2.05 ГБ

В этой теме нет новых непрочитанных сообщений. Могучие рейнджеры / Power Rangers [фантастика, боевик, приключения, 2017] BDRip-AVC, Dub [iTunes]

salma3

1417 | 167

2.89 ГБ

В этой теме нет новых непрочитанных сообщений. Могучие рейнджеры / Power Rangers [фантастика, боевик, приключения, 2017] BDRip, Dub [Лицензия]

salma3

112 | 42

2.18 ГБ

В этой теме нет новых непрочитанных сообщений. Могучие рейнджеры / Power Rangers [фантастика, боевик, приключения, 2017] UHD BDRemux 2160p, Dub [4K] [iTunes]

salma3

26 | 38

41.38 ГБ

В этой теме нет новых непрочитанных сообщений. Могучие рейнджеры / Power Rangers [Фантастика, боевик, приключения, 2017] BDRemux 1080p, Dub [Лицензия]

salma3

0 | 0

26.49 ГБ

В этой теме нет новых непрочитанных сообщений. Могучие рейнджеры / Power Rangers [Фантастика, боевик, приключения, 2017] BDRip 720p, Dub [Лицензия]

salma3

24 | 3

5.54 ГБ

В этой теме нет новых непрочитанных сообщений. Могучие рейнджеры / Power Rangers [Фантастика, боевик, приключения, 2017] BDRemux 1080p, Dub [Лицензия]

salma3

16 | 7

21.94 ГБ


Начать новую тему Ответить на тему  [ 1 сообщение ] 




Для Мосгорсуда, Роскомнадзора и рекламодателей:: mosgorsud-torrent[собачка]yandex.ru
cron