Торрент файл
скачать торрент магнет ссылка Добавлен: 29 ноя 2017, 15:21
Размер: 7.26 ГБ
Сидеров: 17
Личеров: 3
Статус: (salma3)
Автор

СообщениеДобавлено: 29 ноя 2017, 15:21 

Не в сети
Супермодератор
Аватара пользователя
Дата регистрации:
15 фев 2012, 16:44
Возраст: 29
Спасибо: 7377 / 2147
Сообщения: 75902
✧ Год выхода: 2009
Жанр: боевик, триллер, драма, криминал
✧ Выпущено: Великобритания, Next Generation TV & Film, P&T Productions
✧ Продолжительность: 01:31:31
✧ Перевод: Профессиональный многоголосый, любительский двухголосый
✧ Режиссер: Алекс Де Ракофф
✧ В ролях: Дэнни Дайер, Фифти Сент, Тэмер Хассан, Монит Мазур, Бренда Блетин, Джо Иган, Блейк Ритсон, Бронсон Уэбб, Филип Дэвис, Эсме Бьянко, Скот Уильямс, Роб Стоун, Джефф Стюарт, Руперт Дегас, Тревор Байфилд, Джоди Макаллистер, Эндрю Харрис, Гленн Доэрти, Адам Сэйнт, Лоурен Ридинг, Эми Лоусон, Андреа Ньюлэнд

О фильме
Действие происходит в Лондоне. Главный герой – бывший мошенник, пытающийся в корне изменить свою жизнь. Ему дают 24 часа на поиски 100 000 фунтов в уплату долга ростовщику – если он их не найдёт, то его убьют. Он уезжает в Манчестер, место, где процветает наркобизнес.



Файл
✧ Качество: BDRip 1080p
✧ Видео: MPEG-4 AVC, 1920x1080 (16:9), 9879 Kbps, 23.976 fps, 0.199 bpp
✧ Аудио 1: Russian: AC3 / 5.1 / 48 kHz / 448 kbps - MVO, R5
✧ Аудио 2: Russian: AC3 / 2.0 / 48 kHz / 192 kbps - DVO
✧ Аудио 3: Ukrainian: AC3 / 2.0 / 48 kHz / 192 kbps - MVO
✧ Аудио 4: English: AC3 / 5.1 / 48 kHz / 640 kbps - Оригинал
✧ Субтитры: Английские, французские, португальские, голландские
✧ Навигация по главам: есть


Общее
Уникальный идентификатор : 219384857136175009119183905505945917601 (0xA50BFC8FE027B575A465B439844118A1)
Полное имя : Dead.Man.Running.2009.BDRip.1080p.mkv
Формат : Matroska
Версия формата : Version 4 / Version 2
Размер файла : 7,26 Гбайт
Продолжительность : 1 ч. 31 м.
Общий поток : 11,4 Мбит/сек
Название фильма : Dead Man Running (2009)
Дата кодирования : UTC 2015-06-26 20:00:44
Программа кодирования : mkvmerge v6.9.1 ('Blue Panther') 64bit built on Apr 18 2014 18:23:38
Библиотека кодирования : libebml v1.3.0 + libmatroska v1.4.1

Видео
Идентификатор : 1
Формат : AVC
Формат/Информация : Advanced Video Codec
Профиль формата : High@L4.1
Параметр CABAC формата : Да
Параметр RefFrames формата : 5 кадров
Идентификатор кодека : V_MPEG4/ISO/AVC
Продолжительность : 1 ч. 31 м.
Битрейт : 9879 Кбит/сек
Ширина : 1920 пикселей
Высота : 1080 пикселей
Соотношение сторон : 16:9
Режим частоты кадров : Постоянный
Частота кадров : 23,976 кадра/сек
Цветовое пространство : YUV
Субдискретизация насыщенности : 4:2:0
Битовая глубина : 8 бит
Тип развёртки : Прогрессивная
Бит/(Пиксели*Кадры) : 0.199
Размер потока : 6,17 Гбайт (85%)
Заголовок : Dead Man Running (2009)
Библиотека кодирования : x264 core 130 r2273 b3065e6
Настройки программы : cabac=1 / ref=5 / deblock=1:-3:-3 / analyse=0x3:0x133 / me=umh / subme=10 / psy=1 / psy_rd=1.00:0.10 / mixed_ref=1 / me_range=32 / chroma_me=1 / trellis=2 / 8x8dct=1 / cqm=0 / deadzone=21,11 / fast_pskip=1 / chroma_qp_offset=-3 / threads=6 / lookahead_threads=1 / sliced_threads=0 / nr=0 / decimate=1 / interlaced=0 / bluray_compat=0 / constrained_intra=0 / bframes=8 / b_pyramid=2 / b_adapt=2 / b_bias=0 / direct=3 / weightb=1 / open_gop=0 / weightp=2 / keyint=250 / keyint_min=23 / scenecut=40 / intra_refresh=0 / rc_lookahead=60 / rc=2pass / mbtree=1 / bitrate=9879 / ratetol=1.0 / qcomp=0.60 / qpmin=0 / qpmax=69 / qpstep=4 / cplxblur=20.0 / qblur=0.5 / ip_ratio=1.40 / aq=1:1.00
Язык : English
Default : Да
Forced : Нет

Аудио #1
Идентификатор : 2
Формат : AC-3
Формат/Информация : Audio Coding 3
Параметр Endianness формата : Big
Идентификатор кодека : A_AC3
Продолжительность : 1 ч. 31 м.
Вид битрейта : Постоянный
Битрейт : 448 Кбит/сек
Каналы : 6 каналов
Расположение каналов : Front: L C R, Side: L R, LFE
Частота : 48,0 КГц
Частота кадров : 31,250 кадров/сек (1536 SPF)
Битовая глубина : 16 бит
Метод сжатия : С потерями
Размер потока : 293 Мбайт (4%)
Заголовок : AC3, 6 ch, 448 Kbps, MVO
Язык : Russian
Default : Да
Forced : Нет

Аудио #2
Идентификатор : 3
Формат : AC-3
Формат/Информация : Audio Coding 3
Параметр Endianness формата : Big
Идентификатор кодека : A_AC3
Продолжительность : 1 ч. 31 м.
Вид битрейта : Постоянный
Битрейт : 192 Кбит/сек
Каналы : 2 канала
Расположение каналов : Front: L R
Частота : 48,0 КГц
Частота кадров : 31,250 кадров/сек (1536 SPF)
Битовая глубина : 16 бит
Метод сжатия : С потерями
Размер потока : 126 Мбайт (2%)
Заголовок : AC3, 2 ch, 192 Kbps, DVO
Язык : Russian
Default : Нет
Forced : Нет

Аудио #3
Идентификатор : 4
Формат : AC-3
Формат/Информация : Audio Coding 3
Параметр Endianness формата : Big
Идентификатор кодека : A_AC3
Продолжительность : 1 ч. 31 м.
Вид битрейта : Постоянный
Битрейт : 192 Кбит/сек
Каналы : 2 канала
Расположение каналов : Front: L R
Частота : 48,0 КГц
Частота кадров : 31,250 кадров/сек (1536 SPF)
Битовая глубина : 16 бит
Метод сжатия : С потерями
Размер потока : 126 Мбайт (2%)
Заголовок : AC3, 2 ch, 192 Kbps, Українська
Язык : Ukrainian
Default : Нет
Forced : Нет

Аудио #4
Идентификатор : 5
Формат : AC-3
Формат/Информация : Audio Coding 3
Параметр Endianness формата : Big
Идентификатор кодека : A_AC3
Продолжительность : 1 ч. 31 м.
Вид битрейта : Постоянный
Битрейт : 640 Кбит/сек
Каналы : 6 каналов
Расположение каналов : Front: L C R, Side: L R, LFE
Частота : 48,0 КГц
Частота кадров : 31,250 кадров/сек (1536 SPF)
Битовая глубина : 16 бит
Метод сжатия : С потерями
Размер потока : 419 Мбайт (6%)
Заголовок : AC3, 6 ch, 640 Kbps, Original
Язык : English
Default : Нет
Forced : Нет

Текст #1
Идентификатор : 6
Формат : UTF-8
Идентификатор кодека : S_TEXT/UTF8
Идентификатор кодека/Информация : UTF-8 Plain Text
Язык : English
Default : Нет
Forced : Нет

Текст #2
Идентификатор : 7
Формат : UTF-8
Идентификатор кодека : S_TEXT/UTF8
Идентификатор кодека/Информация : UTF-8 Plain Text
Язык : French
Default : Нет
Forced : Нет

Текст #3
Идентификатор : 8
Формат : UTF-8
Идентификатор кодека : S_TEXT/UTF8
Идентификатор кодека/Информация : UTF-8 Plain Text
Язык : Portuguese
Default : Нет
Forced : Нет

Текст #4
Идентификатор : 9
Формат : UTF-8
Идентификатор кодека : S_TEXT/UTF8
Идентификатор кодека/Информация : UTF-8 Plain Text
Язык : Dutch
Default : Нет
Forced : Нет

Меню
00:00:00.000 : en:Chapter 01
00:02:08.015 : en:Chapter 02
00:15:21.879 : en:Chapter 03
00:23:40.252 : en:Chapter 04
00:32:08.551 : en:Chapter 05
00:41:42.374 : en:Chapter 06
00:49:57.828 : en:Chapter 07
00:58:36.221 : en:Chapter 08
01:06:51.048 : en:Chapter 09
01:16:31.795 : en:Chapter 10
01:27:34.381 : en:Chapter 11


_________________
Проголосуй за трекер Открытый торрент трекер - RUS-MEDIA.ORG

Проголосуй Открытый торрент трекер - RUS-MEDIA.ORG


Вернуться к началу
 Профиль Отправить личное сообщение  
 
   Похожие торренты   Автор   Торрент   Размер 
В этой теме нет новых непрочитанных сообщений. Отмеченный смертью / Помеченный смертью / Нико-3 / Marked for Death [боевик, триллер, драма, 1990] BDRip 720p, Dub

salma3

4 | 6

6.9 ГБ

В этой теме нет новых непрочитанных сообщений. Беги без оглядки / Running Scared [Боевик, триллер, драма, криминал, 2006] BDRip 720p, Dub

salma3

0 | 3

7.55 ГБ

В этой теме нет новых непрочитанных сообщений. Одним меньше / Один уже покойник / Dead Man Down [триллер, драма, криминал, боевик, 2012] BDRip 1080p, Dub+Avo+Sub

salma3

41 | 25

12.5 ГБ

В этой теме нет новых непрочитанных сообщений. Взять живым или мертвым / Wanted: Dead or Alive [боевик, триллер, драма, криминал, 1987] BDRip 1080p, Mvo

salma3

59 | 14

10.82 ГБ

В этой теме нет новых непрочитанных сообщений. Ночной беглец / Night of the running man [Триллер, боевик, 1995] BDRip 1080p, Mvo+Avo+Sub

salma3

60 | 68

12.43 ГБ

В этой теме нет новых непрочитанных сообщений. Сыграй мне перед смертью / Play Misty for Me [триллер, драма, криминал, 1971] BDRip, Dub

salma3

9 | 1

1.45 ГБ

В этой теме нет новых непрочитанных сообщений. Грязный Гарри 5: Игра в смерть / The Dead Pool [боевик, триллер, криминал, 1988] BDRip 1080p, Dub

salma3

25 | 6

9.87 ГБ


Начать новую тему Ответить на тему  [ 1 сообщение ] 




Для Мосгорсуда, Роскомнадзора и рекламодателей:: mosgorsud-torrent[собачка]yandex.ru
cron