Торрент файл
скачать торрент магнет ссылка Добавлен: 27 ноя 2017, 21:34
Размер: 41.09 ГБ
Сидеров: 11
Личеров: 4
Статус: (salma3)
Автор

СообщениеДобавлено: 27 ноя 2017, 21:34 

Не в сети
Супермодератор
Аватара пользователя
Дата регистрации:
15 фев 2012, 16:44
Возраст: 28
Спасибо: 7288 / 2147
Сообщения: 70380
Год выхода: 1975
Жанр: драма, приключения, военный, история
Режиссер: Стэнли Кубрик

В ролях: Райан О’Нил, Мариза Беренсон, Патрик Мэги, Харди Крюгер, Стивен Беркофф, Гэй Хэмилтон, Мари Кин, Диана Кернер, Мюррэй Мелвин, Фрэнк Миддлмэсс, Андре Морелл, Артур О’Салливан, Годфри Куигли, Леонард Росситер, Филип Стоун, Леон Виталий, Джон Биндон, Роджер Бут, Билли Бойл, Джонатан Сесил, Питер Селлиер

Описание: История жизни простого ирландского парня Редмонда Барри. Будучи еще совсем молодым, он убил на дуэли офицера английской армии. Чтобы не попасть в руки полиции, ему пришлось покинуть родной дом и отправиться странствовать по Ирландии. Но странствия его были недолгими. Отдав грабителям все деньги, коня и оружие, он вынужден был записаться в ряды английской армии. Попав на войну и насмотревшись всех ее ужасов, он решает дезертировать. Украв офицерскую форму, Барри отправляется в расположение союзников, надеясь оттуда тайком перебраться в Ирландию. Но и здесь его ожидает неудача: его разоблачает капитан прусской армии, заставляя вступить в ее ряды. По окончании войны Барри смог, наконец, вернуться в свою страну…



Страна: Великобритания, США, Ирландия
Продолжительность: 03:05:13
Перевод 1: Профессиональный (многоголосый закадровый) НТВ
Перевод 2: Авторский (одноголосый закадровый) Сергей Кузнецов
Перевод 3: Любительский (одноголосый закадровый)
Субтитры: русские, английские, английские SDH

Файл
Качество: BDRemux 1080p
Видео: AVC / 1920x1080 / 16:9 / 23.976 fps / 27127 Kbps / High@L4.1
Аудио 1: Rus: AC3 / 48.0 KHz / 2.0 / 192kbps / НТВ
Аудио 2: Rus: AC3 / 48.0 KHz / 2.0 / 192kbps / AVO / С. Кузнецов
Аудио 3: Rus: AC3 / 48.0 KHz / 2.0 / 192kbps / VO
Аудио 4: Eng: DTS-HD MA / 48.0 KHz / 5.1 / 4051 kbps / 24 bit (DTS Core 48.0 KHz / 5.1 / 1509 kbps / 24 bit)

Общее
Уникальный идентификатор : 216286289431720235344276614546548984327 (0xA2B739611687C7BD89698480DE020A07)
Полное имя : Barry.Lyndon.1975.Criterion.Collection.BDRemux.1080p.mkv
Формат : Matroska
Версия формата : Version 4 / Version 2
Размер файла : 41,1 Гбайт
Продолжительность : 3 ч. 5 м.
Режим общего битрейта : Переменный
Общий поток : 31,8 Мбит/сек
Название фильма : Barry.Lyndon.1975.Criterion.Collection.BDRemux.1080p-porvaliparus
Дата кодирования : UTC 2017-11-27 05:01:56
Программа кодирования : mkvmerge v18.0.0 ('Apricity') 64-bit
Библиотека кодирования : libebml v1.3.5 + libmatroska v1.4.8

Видео
Идентификатор : 1
Формат : AVC
Формат/Информация : Advanced Video Codec
Профиль формата : High@L4.1
Настройки формата : CABAC / 4 Ref Frames
Параметр CABAC формата : Да
Параметр RefFrames формата : 4 кадра
Идентификатор кодека : V_MPEG4/ISO/AVC
Продолжительность : 3 ч. 5 м.
Вид битрейта : Переменный
Битрейт : 27,1 Мбит/сек
Максимальный битрейт : 37,0 Мбит/сек
Ширина : 1920 пикселей
Высота : 1080 пикселей
Соотношение сторон : 16:9
Режим частоты кадров : Постоянный
Частота кадров : 23,976 (24000/1001) кадра/сек
Цветовое пространство : YUV
Субдискретизация насыщенности : 4:2:0
Битовая глубина : 8 бит
Тип развёртки : Прогрессивная
Бит/(Пиксели*Кадры) : 0.546
Размер потока : 35,1 Гбайт (85%)
Заголовок : Barry.Lyndon.1975.Criterion.Collection.BDRemux.1080p
Default : Да
Forced : Нет

Аудио #1
Идентификатор : 2
Формат : AC-3
Формат/Информация : Audio Coding 3
Идентификатор кодека : A_AC3
Продолжительность : 3 ч. 5 м.
Вид битрейта : Постоянный
Битрейт : 192 Кбит/сек
Каналы : 2 канала
Расположение каналов : Front: L R
Частота : 48,0 КГц
Частота кадров : 31,250 кадров/сек (1536 SPF)
Битовая глубина : 16 бит
Метод сжатия : С потерями
Размер потока : 254 Мбайт (1%)
Заголовок : MVO [НТВ]
Язык : Russian
Default : Да
Forced : Нет

Аудио #2
Идентификатор : 3
Формат : AC-3
Формат/Информация : Audio Coding 3
Идентификатор кодека : A_AC3
Продолжительность : 3 ч. 5 м.
Вид битрейта : Постоянный
Битрейт : 192 Кбит/сек
Каналы : 2 канала
Расположение каналов : Front: L R
Частота : 48,0 КГц
Частота кадров : 31,250 кадров/сек (1536 SPF)
Битовая глубина : 16 бит
Метод сжатия : С потерями
Размер потока : 254 Мбайт (1%)
Заголовок : AVO [С. Кузнецов]
Язык : Russian
Default : Нет
Forced : Нет

Аудио #3
Идентификатор : 4
Формат : AC-3
Формат/Информация : Audio Coding 3
Идентификатор кодека : A_AC3
Продолжительность : 3 ч. 5 м.
Вид битрейта : Постоянный
Битрейт : 192 Кбит/сек
Каналы : 2 канала
Расположение каналов : Front: L R
Частота : 48,0 КГц
Частота кадров : 31,250 кадров/сек (1536 SPF)
Битовая глубина : 16 бит
Метод сжатия : С потерями
Размер потока : 254 Мбайт (1%)
Заголовок : VO
Язык : Russian
Default : Нет
Forced : Нет

Аудио #4
Идентификатор : 5
Формат : DTS
Формат/Информация : Digital Theater Systems
Профиль формата : MA / Core
Идентификатор кодека : A_DTS
Продолжительность : 3 ч. 5 м.
Вид битрейта : Переменный / Постоянный
Битрейт : 4051 Кбит/сек / 1509 Кбит/сек
Каналы : 6 каналов
Расположение каналов : Front: L C R, Side: L R, LFE
Частота : 48,0 КГц
Частота кадров : 93,750 кадра/сек (512 SPF)
Битовая глубина : 24 бит
Метод сжатия : Без потерь / Lossy
Размер потока : 5,24 Гбайт (13%)
Язык : English
Default : Нет
Forced : Нет

Текст #1
Идентификатор : 6
Формат : UTF-8
Идентификатор кодека : S_TEXT/UTF8
Идентификатор кодека/Информация : UTF-8 Plain Text
Продолжительность : 3 ч. 0 м.
Битрейт : 75 бит/сек
ElementCount : 1572
Размер потока : 101 Кбайт (0%)
Язык : Russian
Default : Нет
Forced : Нет

Текст #2
Идентификатор : 7
Формат : UTF-8
Идентификатор кодека : S_TEXT/UTF8
Идентификатор кодека/Информация : UTF-8 Plain Text
Продолжительность : 2 ч. 57 м.
Битрейт : 53 бит/сек
ElementCount : 1788
Размер потока : 69,7 Кбайт (0%)
Язык : English
Default : Нет
Forced : Нет

Текст #3
Идентификатор : 8
Формат : UTF-8
Идентификатор кодека : S_TEXT/UTF8
Идентификатор кодека/Информация : UTF-8 Plain Text
Продолжительность : 2 ч. 57 м.
Битрейт : 57 бит/сек
ElementCount : 1942
Размер потока : 74,2 Кбайт (0%)
Заголовок : SDH
Язык : English
Default : Нет
Forced : Нет

Меню
00:00:00.000 : en:00:00:00.000
00:01:08.068 : en:00:01:08.068
00:06:27.971 : en:00:06:27.971
00:11:14.674 : en:00:11:14.674
00:15:13.538 : en:00:15:13.538
00:21:18.527 : en:00:21:18.527
00:28:04.600 : en:00:28:04.600
00:33:58.411 : en:00:33:58.411
00:40:08.823 : en:00:40:08.823
00:43:50.628 : en:00:43:50.628
00:47:52.328 : en:00:47:52.328
00:51:29.795 : en:00:51:29.795
00:58:19.746 : en:00:58:19.746
01:04:48.426 : en:01:04:48.426
01:10:57.879 : en:01:10:57.879
01:13:49.800 : en:01:13:49.800
01:18:05.639 : en:01:18:05.639
01:22:46.712 : en:01:22:46.712
01:27:32.956 : en:01:27:32.956
01:32:18.491 : en:01:32:18.491
01:38:06.547 : en:01:38:06.547
01:42:48.788 : en:01:42:48.788
01:47:32.988 : en:01:47:32.988
01:53:29.678 : en:01:53:29.678
01:56:50.837 : en:01:56:50.837
02:00:31.391 : en:02:00:31.391
02:02:36.057 : en:02:02:36.057
02:07:58.421 : en:02:07:58.421
02:11:49.568 : en:02:11:49.568
02:17:00.129 : en:02:17:00.129
02:20:24.833 : en:02:20:24.833
02:27:22.459 : en:02:27:22.459
02:32:10.788 : en:02:32:10.788
02:37:25.269 : en:02:37:25.269
02:39:48.412 : en:02:39:48.412
02:42:24.860 : en:02:42:24.860
02:51:15.932 : en:02:51:15.932
02:57:37.313 : en:02:57:37.313
03:01:45.311 : en:03:01:45.311


_________________
Проголосуй за трекер Открытый торрент трекер - RUS-MEDIA.ORG

Проголосуй Открытый торрент трекер - RUS-MEDIA.ORG


Вернуться к началу
 Профиль Отправить личное сообщение  
 
   Похожие торренты   Автор   Торрент   Размер 
В этой теме нет новых непрочитанных сообщений. Они сражались за Родину [драма, военный, история, 1975] BDRip 1080p

salma3

46 | 15

13.61 ГБ

В этой теме нет новых непрочитанных сообщений. Барри / Barry [S01] [комедия, 2018] WEBRip 1080p, Mvo [GreenРай Studio]

salma3

0 | 0

12.77 ГБ

В этой теме нет новых непрочитанных сообщений. МакАртур / MacArthur [драма, военный, биография, история, 1977] BDRemux 1080p, Mvo

salma3

0 | 0

28.57 ГБ

В этой теме нет новых непрочитанных сообщений. По соображениям совести / Hacksaw Ridge [Драма, военный, история, 2016] BDRemux 1080p, Dub

salma3

4 | 28

39.73 ГБ

В этой теме нет новых непрочитанных сообщений. Дюнкерк / Dunkirk [Военный, драма, история, 2017] BDRemux 1080p, Dub [IMAX] [Лицензия]

salma3

74 | 5

28.12 ГБ

В этой теме нет новых непрочитанных сообщений. Последний самурай / The Last Samurai [Боевик, драма, военный, история, 2003] BDRemux 1080p, Dub

salma3

10 | 15

25.35 ГБ

В этой теме нет новых непрочитанных сообщений. Дюнкерк / Dunkirk [Военный, драма, история, 2017] BDRemux 1080p, Dub [IMAX] [Лицензия]

salma3

94 | 2

26.31 ГБ


Начать новую тему Ответить на тему  [ 1 сообщение ] 




Для Мосгорсуда, Роскомнадзора и рекламодателей:: mosgorsud-torrent[собачка]yandex.ru
cron