Торрент файл
скачать торрент магнет ссылка Добавлен: 25 ноя 2017, 22:03
Размер: 4.63 ГБ
Сидеров: 4
Личеров: 0
Статус: (salma3)
Автор

СообщениеДобавлено: 25 ноя 2017, 22:03 

Не в сети
Супермодератор
Аватара пользователя
Дата регистрации:
15 фев 2012, 16:44
Возраст: 29
Спасибо: 7377 / 2147
Сообщения: 75752
Год выхода: 2007
Жанр: боевик, триллер, драма
Режиссер: Джон Херцфелд

В ролях: Пол Уокер, Лоуренс Фишберн, Джейсон Льюис, Оливия Уайлд, Jarrod Bunch, Джейсон Флеминг, Джейкоб Варгас, Кейт Кэррадайн, Джош Стюарт

О фильме:
Агент службы по борьбе с наркотиками Тэд Груза предлагает свободу заключенному вояке Тиму Кирни при одном условии — тот должен «сыграть» недавно умершего наркобарона Бобби Зи для выполнения одной спецоперации. Но всё идет не по плану: Тим сбегает, прихватив с собой сына Бобби Зи.



Страна: США, Германия
Продолжительность: 01:36:52
Перевод: Профессиональный (многоголосый закадровый)
Перевод 2: Профессиональный (двухголосый закадровый)
Перевод 3: Украинский: Профессиональный (двухголосый закадровый)

Файл
Качество: BDRip 720p
Видео: AVC, 1280x536 (2.40:1), 23.976 fps, 5 116 Kbps (0.311 bit/pixel)
Аудио #1: AC-3, 48.0 KHz, 6 ch, 448 Kbps, CBR (Russian) - многоголосый
Аудио #2: AC-3, 48.0 KHz, 6 ch, 448 Kbps, CBR (Russian) - двухголосый
Аудио #3: Ukrainian, 48.0 KHz, AC3, 6 ch, 384 Kbps - Двухголосый закадровый
Аудио #4: AC-3, 48.0 KHz, 6 ch, 448 Kbps, CBR (English) - оригинальная звуковая дорожка
Субтитры: Русские, английские

Общее
Уникальный идентификатор : 254221216600035395256924648008988741457 (0xBF4139B0DB1934AEA04990D1BDEBCF51)
Полное имя : F:The.Death.and.Life.of.Bobby.Z.2007.x264.BDRip.720p.2xRus.Ukr.Eng.mkv
Формат : Matroska
Версия формата : Version 4 / Version 2
Размер файла : 4,63 Гбайт
Продолжительность : 1 ч. 36 м.
Общий поток : 6848 Кбит/сек
Дата кодирования : UTC 2017-11-25 13:56:40
Программа кодирования : mkvmerge v7.9.0 ('Birds') 64bit
Библиотека кодирования : libebml v1.3.1 + libmatroska v1.4.2
DURATION : 01:36:52.704000000
NUMBER_OF_FRAMES : 181647
NUMBER_OF_BYTES : 279009792
_STATISTICS_WRITING_APP : mkvmerge v7.9.0 ('Birds') 64bit
_STATISTICS_WRITING_DATE_UTC : 2017-11-25 13:56:40
_STATISTICS_TAGS : BPS DURATION NUMBER_OF_FRAMES NUMBER_OF_BYTES
Attachment : Yes

Видео
Идентификатор : 1
Формат : AVC
Формат/Информация : Advanced Video Codec
Профиль формата : High@L4.1
Параметр CABAC формата : Да
Параметр ReFrames формата : 12 кадров
Идентификатор кодека : V_MPEG4/ISO/AVC
Продолжительность : 1 ч. 36 м.
Битрейт : 5116 Кбит/сек
Ширина : 1280 пикселей
Высота : 536 пикселей
Соотношение сторон : 2,40:1
Режим частоты кадров : Постоянный
Частота кадров : 23,976 кадра/сек
Цветовое пространство : YUV
Субдискретизация насыщенности : 4:2:0
Битовая глубина : 8 бит
Тип развёртки : Прогрессивная
Бит/(Пиксели*Кадры) : 0.311
Размер потока : 3,37 Гбайт (73%)
Библиотека кодирования : x264 core 146 r2538 121396c
Настройки программы : cabac=1 / ref=12 / deblock=1:-3:-3 / analyse=0x3:0x133 / me=umh / subme=11 / psy=1 / psy_rd=1.02:0.05 / mixed_ref=1 / me_range=32 / chroma_me=1 / trellis=2 / 8x8dct=1 / cqm=0 / deadzone=21,11 / fast_pskip=0 / chroma_qp_offset=-3 / threads=12 / lookahead_threads=3 / sliced_threads=0 / nr=0 / decimate=0 / interlaced=0 / bluray_compat=0 / constrained_intra=0 / bframes=11 / b_pyramid=2 / b_adapt=2 / b_bias=0 / direct=3 / weightb=1 / open_gop=0 / weightp=2 / keyint=240 / keyint_min=23 / scenecut=40 / intra_refresh=0 / rc=2pass / mbtree=0 / bitrate=5116 / ratetol=1.0 / qcomp=0.60 / qpmin=0 / qpmax=69 / qpstep=4 / cplxblur=20.0 / qblur=0.5 / ip_ratio=1.40 / pb_ratio=1.30 / aq=3:0.90
Язык : English
Default : Да
Forced : Нет
DURATION : 01:36:52.849000000
NUMBER_OF_FRAMES : 139369
NUMBER_OF_BYTES : 3717151118
_STATISTICS_WRITING_APP : mkvmerge v7.9.0 ('Birds') 64bit
_STATISTICS_WRITING_DATE_UTC : 2017-11-25 13:56:40
_STATISTICS_TAGS : BPS DURATION NUMBER_OF_FRAMES NUMBER_OF_BYTES

Аудио #1
Идентификатор : 2
Формат : AC-3
Формат/Информация : Audio Coding 3
Расширение режима : CM (complete main)
Параметр Endianness формата : Big
Идентификатор кодека : A_AC3
Продолжительность : 1 ч. 36 м.
Вид битрейта : Постоянный
Битрейт : 448 Кбит/сек
Каналы : 6 каналов
Расположение каналов : Front: L C R, Side: L R, LFE
Частота : 48,0 КГц
Битовая глубина : 16 бит
Метод сжатия : С потерями
Размер потока : 310 Мбайт (7%)
Заголовок : Профессиональный многоголосый
Язык : Russian
Default : Да
Forced : Да

Аудио #2
Идентификатор : 3
Формат : AC-3
Формат/Информация : Audio Coding 3
Расширение режима : CM (complete main)
Параметр Endianness формата : Big
Идентификатор кодека : A_AC3
Продолжительность : 1 ч. 36 м.
Вид битрейта : Постоянный
Битрейт : 448 Кбит/сек
Каналы : 6 каналов
Расположение каналов : Front: L C R, Side: L R, LFE
Частота : 48,0 КГц
Битовая глубина : 16 бит
Метод сжатия : С потерями
Размер потока : 310 Мбайт (7%)
Заголовок : Профессиональный двухголосый
Язык : Russian
Default : Нет
Forced : Нет

Аудио #3
Идентификатор : 4
Формат : AC-3
Формат/Информация : Audio Coding 3
Расширение режима : CM (complete main)
Параметр Endianness формата : Big
Идентификатор кодека : A_AC3
Продолжительность : 1 ч. 36 м.
Вид битрейта : Постоянный
Битрейт : 384 Кбит/сек
Каналы : 6 каналов
Расположение каналов : Front: L C R, Side: L R, LFE
Частота : 48,0 КГц
Битовая глубина : 16 бит
Метод сжатия : С потерями
Размер потока : 266 Мбайт (6%)
Заголовок : Профессиональный двухголосый
Язык : Ukrainian
Default : Нет
Forced : Нет

Аудио #4
Идентификатор : 5
Формат : AC-3
Формат/Информация : Audio Coding 3
Расширение режима : CM (complete main)
Параметр Endianness формата : Big
Идентификатор кодека : A_AC3
Продолжительность : 1 ч. 36 м.
Вид битрейта : Постоянный
Битрейт : 448 Кбит/сек
Каналы : 6 каналов
Расположение каналов : Front: L C R, Side: L R, LFE
Частота : 48,0 КГц
Битовая глубина : 16 бит
Метод сжатия : С потерями
Размер потока : 310 Мбайт (7%)
Язык : English
Default : Нет
Forced : Нет

Текст #1
Идентификатор : 6
Формат : UTF-8
Идентификатор кодека : S_TEXT/UTF8
Идентификатор кодека/Информация : UTF-8 Plain Text
Язык : Russian
Default : Нет
Forced : Нет

Текст #2
Идентификатор : 7
Формат : UTF-8
Идентификатор кодека : S_TEXT/UTF8
Идентификатор кодека/Информация : UTF-8 Plain Text
Язык : English
Default : Нет
Forced : Нет

Меню
00:00:00.000 : :Chapter 01
00:10:23.455 : :Chapter 02
00:19:09.272 : :Chapter 03
00:27:46.373 : :Chapter 04
00:34:24.271 : :Chapter 05
00:40:37.685 : :Chapter 06
00:46:37.044 : :Chapter 07
00:50:37.076 : :Chapter 08
00:57:38.872 : :Chapter 09
01:06:06.671 : :Chapter 10
01:15:44.122 : :Chapter 11
01:20:59.313 : :Chapter 12
01:24:00.160 : :Chapter 13
01:31:47.585 : :Chapter 14



Релиз от: &


_________________
Проголосуй за трекер Открытый торрент трекер - RUS-MEDIA.ORG

Проголосуй Открытый торрент трекер - RUS-MEDIA.ORG


Вернуться к началу
 Профиль Отправить личное сообщение  
 
   Похожие торренты   Автор   Торрент   Размер 
В этой теме нет новых непрочитанных сообщений. Подстава / Жизнь и смерть Бобби Зи / The Death and Life of Bobby Z [боевик, триллер, драма, 2007] BDRip 1080p, Mvo

salma3

44 | 12

8.74 ГБ

В этой теме нет новых непрочитанных сообщений. Подстава / Жизнь и смерть Бобби Зи / The Death and Life of Bobby Z [боевик, триллер, драма, 2007] BDRip 1080p, Mvo

salma3

7 | 5

8.02 ГБ

В этой теме нет новых непрочитанных сообщений. Подстава / Жизнь и смерть Бобби Зи / The Death and Life of Bobby Z [боевик, триллер, драма, криминал, 2007] BDRemux 1080p, Mvo

salma3

17 | 9

19.34 ГБ

В этой теме нет новых непрочитанных сообщений. Подстава / The Death and Life of Bobby Z [Боевик, триллер, драма, криминал, 2007] BDRip 1080p, Mvo

salma3

45 | 15

7.63 ГБ

В этой теме нет новых непрочитанных сообщений. Жизнь и смерть Питера Селлерса / The Life and Death of Peter Sellers [драма, комедия, биография, 2004] HDTV 1080i, Mvo

salma3

112 | 47

6.52 ГБ

В этой теме нет новых непрочитанных сообщений. Ордер на смерть / Death Warrant [Боевик, драма, криминал, 1990] BDRip 720p, Mvo

salma3

0 | 0

9.01 ГБ

В этой теме нет новых непрочитанных сообщений. Внезапная Смерть / Sudden Death [Боевик, триллер, драма, 1995] BDRip-AVC, Mvo+Sub

salma3

29 | 23

2.91 ГБ


Начать новую тему Ответить на тему  [ 1 сообщение ] 




Для Мосгорсуда, Роскомнадзора и рекламодателей:: mosgorsud-torrent[собачка]yandex.ru
cron