Торрент файл
скачать торрент магнет ссылка Добавлен: 25 ноя 2017, 22:02
Размер: 10.54 ГБ
Сидеров: 7
Личеров: 1
Статус: (salma3)
Автор

СообщениеДобавлено: 25 ноя 2017, 22:02 

Не в сети
Супермодератор
Аватара пользователя
Дата регистрации:
15 фев 2012, 16:44
Возраст: 28
Спасибо: 7163 / 2147
Сообщения: 61819
✧ Год выхода: 2000
Жанр: боевик, триллер, драма, военный
✧ Выпущено: США, Германия, Канада, Великобритания
✧ Продолжительность: 02:07:19
✧ Перевод: Профессиональный (дублированный)
✧ Режиссер: Уильям Фридкин
✧ В ролях: Томми Ли Джонс, Самюэль Л. Джексон, Бен Кингсли, Блейр Андервуд, Энн Арчер, Брюс Гринвуд, Филип Бейкер Холл, Гай Пирс, Уилл Уоллас, Дуэйн Уайтакер

О фильме
Полковник морской пехоты Терри Чайлдерс отправляется на опасное спецзадание в одно из ближневосточных государств, где у стен американского посольства проводят демонстрацию разъяренные исламисты. Когда разбушевавшаяся толпа начинает штурм здания, он по всем правилам боя открывает по ней огонь, ради спасения жизней посла США и его семьи. Отчаянный патриот, участник самых рискованных военных кампаний, теперь обвиняется в убийстве гражданских лиц другого государства.



Файл
✧ Качество: BDRip 1080p
✧ Видео: MPEG-4 AVC, 1920x726 (2.645), 23.976 fps, 10.7 Mbps, 0.321 bpp
✧ Аудио 1: Russian: AC3 / 5.1 / 48 kHz / 448 kbps - Дублированный
✧ Аудио 2: English: AC3 / 5.1 / 48 kHz / 448 kbps - Оригинал
✧ Аудио 3: English: AC3 / 2.0 / 48 kHz / 224 kbps - Комментарии
✧ Субтитры: Русские, английские
✧ Навигация по главам: есть



Общее
Уникальный идентификатор : 235572505752411327047084302549670220075 (0xB1399D4220E33CB2BEA178FF3B7CD12B)
Полное имя : Rules.of.Engagement.2000.BDRip.1080p.mkv
Формат : Matroska
Версия формата : Version 2
Размер файла : 10,5 Гбайт
Продолжительность : 2 ч. 7 м.
Общий поток : 11,9 Мбит/сек
Дата кодирования : UTC 2017-11-25 14:07:26
Программа кодирования : mkvmerge v5.8.0 ('No Sleep / Pillow') built on Sep 2 2012 15:37:04
Библиотека кодирования : libebml v1.2.3 + libmatroska v1.3.0

Видео
Идентификатор : 1
Формат : AVC
Формат/Информация : Advanced Video Codec
Профиль формата : High@L4.1
Параметр CABAC формата : Да
Параметр RefFrames формата : 5 кадров
Идентификатор кодека : V_MPEG4/ISO/AVC
Продолжительность : 2 ч. 7 м.
Битрейт : 10,7 Мбит/сек
Ширина : 1920 пикселей
Высота : 726 пикселей
Соотношение сторон : 2,645
Режим частоты кадров : Постоянный
Частота кадров : 24,000 кадра/сек
Цветовое пространство : YUV
Субдискретизация насыщенности : 4:2:0
Битовая глубина : 8 бит
Тип развёртки : Прогрессивная
Бит/(Пиксели*Кадры) : 0.321
Размер потока : 9,34 Гбайт (89%)
Библиотека кодирования : x264 core 107 r1745 4785e8e
Настройки программы : cabac=1 / ref=5 / deblock=1:-3:-3 / analyse=0x3:0x113 / me=umh / subme=10 / psy=1 / psy_rd=1.05:0.10 / mixed_ref=1 / me_range=64 / chroma_me=1 / trellis=2 / 8x8dct=1 / cqm=2 / deadzone=21,11 / fast_pskip=0 / chroma_qp_offset=-2 / threads=12 / sliced_threads=0 / nr=0 / decimate=1 / interlaced=0 / constrained_intra=0 / bframes=6 / b_pyramid=2 / b_adapt=2 / b_bias=0 / direct=3 / weightb=1 / open_gop=0 / weightp=2 / keyint=250 / keyint_min=24 / scenecut=40 / intra_refresh=0 / rc_lookahead=60 / rc=2pass / mbtree=1 / bitrate=10732 / ratetol=1.0 / qcomp=0.70 / qpmin=10 / qpmax=51 / qpstep=4 / cplxblur=20.0 / qblur=0.5 / vbv_maxrate=50000 / vbv_bufsize=50000 / ip_ratio=1.40 / aq=1:1.00 / nal_hrd=none
Язык : English
Default : Нет
Forced : Нет

Аудио #1
Идентификатор : 2
Формат : AC-3
Формат/Информация : Audio Coding 3
Параметр Endianness формата : Big
Идентификатор кодека : A_AC3
Продолжительность : 2 ч. 7 м.
Вид битрейта : Постоянный
Битрейт : 448 Кбит/сек
Каналы : 6 каналов
Расположение каналов : Front: L C R, Side: L R, LFE
Частота : 48,0 КГц
Частота кадров : 31,250 кадров/сек (1536 SPF)
Битовая глубина : 16 бит
Метод сжатия : С потерями
Размер потока : 408 Мбайт (4%)
Заголовок : DUB
Язык : Russian
Default : Да
Forced : Нет

Аудио #2
Идентификатор : 3
Формат : AC-3
Формат/Информация : Audio Coding 3
Параметр Endianness формата : Big
Идентификатор кодека : A_AC3
Продолжительность : 2 ч. 7 м.
Вид битрейта : Постоянный
Битрейт : 448 Кбит/сек
Каналы : 6 каналов
Расположение каналов : Front: L C R, Side: L R, LFE
Частота : 48,0 КГц
Частота кадров : 31,250 кадров/сек (1536 SPF)
Битовая глубина : 16 бит
Метод сжатия : С потерями
Размер потока : 408 Мбайт (4%)
Заголовок : Original
Язык : English
Default : Нет
Forced : Нет

Аудио #3
Идентификатор : 4
Формат : AC-3
Формат/Информация : Audio Coding 3
Параметр Endianness формата : Big
Идентификатор кодека : A_AC3
Продолжительность : 2 ч. 7 м.
Вид битрейта : Постоянный
Битрейт : 224 Кбит/сек
Каналы : 2 канала
Расположение каналов : Front: L R
Частота : 48,0 КГц
Частота кадров : 31,250 кадров/сек (1536 SPF)
Битовая глубина : 16 бит
Метод сжатия : С потерями
Размер потока : 204 Мбайт (2%)
Заголовок : Director's Commentary
Язык : English
Default : Нет
Forced : Нет

Текст #1
Идентификатор : 5
Формат : UTF-8
Идентификатор кодека : S_TEXT/UTF8
Идентификатор кодека/Информация : UTF-8 Plain Text
Язык : Russian
Default : Нет
Forced : Нет

Текст #2
Идентификатор : 6
Формат : UTF-8
Идентификатор кодека : S_TEXT/UTF8
Идентификатор кодека/Информация : UTF-8 Plain Text
Язык : English
Default : Нет
Forced : Нет

Меню
00:00:00.000 : en:Battle of Ca Lu
00:09:21.833 : en:Distinguished Service
00:14:27.208 : en:Embassy Siege
00:23:16.292 : en:International Crisis
00:31:01.542 : en:General Court-Martial
00:40:02.333 : en:Weak Lawyer
00:49:24.708 : en:Making a Case
00:56:47.000 : en:Yemen Investigation
01:02:45.458 : en:Career at Risk
01:11:50.167 : en:Opening Arguments
01:21:39.208 : en:Doctor Ahmar
01:27:59.125 : en:Withholding Evidence
01:37:41.750 : en:Childers' Testimony
01:45:06.500 : en:Summation
01:54:21.417 : en:Verdict
02:00:22.708 : en:Ednd Credits


_________________
Проголосуй за трекер Открытый торрент трекер - RUS-MEDIA.ORG

Проголосуй Открытый торрент трекер - RUS-MEDIA.ORG


Вернуться к началу
 Профиль Отправить личное сообщение  
 
   Похожие торренты   Автор   Торрент   Размер 
В этой теме нет новых непрочитанных сообщений. Правила боя / Rules of Engagement [боевик, драма, военный, 2000] BDRip 1080p, Dub+Sub

salma3

7 | 5

11.29 ГБ

В этой теме нет новых непрочитанных сообщений. Правила виноделов / The Cider House Rules [Драма, мелодрама, 1999] BDRip 720p, Dub+Sub

salma3

14 | 3

8.61 ГБ

В этой теме нет новых непрочитанных сообщений. Правила виноделов / The Cider House Rules [Мелодрама, драма, экранизация, 1999] BDRemux 1080p, Dub

salma3

9 | 12

20.6 ГБ

В этой теме нет новых непрочитанных сообщений. Патриот / The Patriot (Роланд Эммерих / Roland Emmerich) [2000 г., Боевик, драма, военный, BDRip 1080p]

marya111

0 | 0

14.31 ГБ

В этой теме нет новых непрочитанных сообщений. Дракула 2000 / Dracula 2000 [ужасы, фэнтези, боевик, триллер, 2000] BDRip 1080p, Dub+Sub

salma3

54 | 14

9.81 ГБ

В этой теме нет новых непрочитанных сообщений. Союзники / Allied [боевик, триллер, драма, мелодрама, военный, 2016] BDRip 1080p, Dub+Sub [Лицензия]

salma3

649 | 167

11.01 ГБ

В этой теме нет новых непрочитанных сообщений. Патриот / The Patriot [Боевик, драма, военный, 2000] BDRip 720p, Dub [Расширенная версия]

salma3

7 | 4

10.07 ГБ


Начать новую тему Ответить на тему  [ 1 сообщение ] 




Для Мосгорсуда, Роскомнадзора и рекламодателей:: mosgorsud-torrent[собачка]yandex.ru
cron