Торрент файл
скачать торрент магнет ссылка Добавлен: 25 ноя 2017, 02:17
Размер: 12.07 ГБ
Сидеров: 8
Личеров: 2
Статус: (salma3)
Автор

СообщениеДобавлено: 25 ноя 2017, 02:17 

Не в сети
Супермодератор
Аватара пользователя
Дата регистрации:
15 фев 2012, 16:44
Возраст: 28
Спасибо: 7285 / 2147
Сообщения: 70380
✧ Год выхода: 2002
Жанр: боевик, триллер, драма
✧ Выпущено: США, Malpaso Productions, Warner Bros. Pictures
✧ Продолжительность: 01:50:29
✧ Перевод: Профессиональный двухголосый, профессиональный многоголосый, авторский одноголосый
✧ Режиссер: Клинт Иствуд / Clint Eastwood
✧ В ролях: Клинт Иствуд, Джефф Дэниелс, Анжелика Хьюстон, Ванда Де Джисус, Тина Лиффорд, Пол Родригез, Дилан Уолш, Мэйсон Лучеро, Джерри Бекер, Рик Хоффман

✧ О фильме:
Терри МакКалеб - бывший агент ФБР, специализирующийся на серийных убийствах, перенес операцию по пересадке сердца и теперь находится на пенсии, теша себя починкой своей лодки. Но его талант вновь востребован, и он получает новое задание. А нанимает его некто Граселия Риверс для того, чтобы он расследовал причину гибели ее сестры, сердце которой и было пересажено Терри. Расследование выявило очень интересные факты: сестра Граселии была убита, и убийство было обставлено как инцидент во время ограбления. А убийцей, возможно, был человек, за которым Терри охотился многие годы. Непростая работа для престарелого и имеющего проблемы с сердцем шпиона, который предполагал совсем иначе распорядиться своим временем.



Файл
✧ Качество: BDRip 1080p
✧ Видео: MPEG-4 AVC, 1920x800 (2.40:1), 12658 Kbps, 23.976 fps
✧ Аудио 1: Russian: AC2 / 5.1 / 48 kHz / 384 kbps - DVO, R5
✧ Аудио 2: Russian: AC3 / 5.1 / 48 kHz / 448 kbps - MVO
✧ Аудио 3: Russian: AC3 / 2.0 / 48 kHz / 192 kbps - AVO, А. Гаврилов
✧ Аудио 4: Russian: AC3 / 5.1 / 48 kHz / 448 kbps - AVO, Ю. Живов
✧ Аудио 5: English: DTS / 5.1 / 48 kHz / 1509 kbps - Оригинал
✧ Субтитры: Русские, английские
✧ Навигация по главам: есть



Общее
Уникальный идентификатор : 179593807500809416907759501247936531886 (0x871C8258EA3211DB918A2418E6050DAE)
Полное имя : Blood.Work.2002.BDRip.1080p.mkv
Формат : Matroska
Версия формата : Version 2
Размер файла : 12,1 Гбайт
Продолжительность : 1 ч. 50 м.
Общий поток : 15,6 Мбит/сек
Название фильма : Blood.Work.2002.BDRip.1080p
Дата кодирования : UTC 2017-11-24 19:35:16
Программа кодирования : mkvmerge v5.8.0 ('No Sleep / Pillow') built on Sep 2 2012 15:37:04
Библиотека кодирования : libebml v1.2.3 + libmatroska v1.3.0

Видео
Идентификатор : 1
Формат : AVC
Формат/Информация : Advanced Video Codec
Профиль формата : High@L4.1
Параметр CABAC формата : Да
Параметр RefFrames формата : 4 кадра
Идентификатор кодека : V_MPEG4/ISO/AVC
Продолжительность : 1 ч. 50 м.
Битрейт : 12,7 Мбит/сек
Ширина : 1920 пикселей
Высота : 800 пикселей
Соотношение сторон : 2,40:1
Режим частоты кадров : Постоянный
Частота кадров : 23,976 (24000/1001) кадра/сек
Цветовое пространство : YUV
Субдискретизация насыщенности : 4:2:0
Битовая глубина : 8 бит
Тип развёртки : Прогрессивная
Бит/(Пиксели*Кадры) : 0.344
Размер потока : 9,53 Гбайт (79%)
Заголовок : Кровавая работа / Blood Work (2002)
Библиотека кодирования : x264 core 124 r2197 69a0443
Настройки программы : cabac=1 / ref=4 / deblock=1:-3:-3 / analyse=0x3:0x133 / me=umh / subme=11 / psy=1 / psy_rd=1.05:0.05 / mixed_ref=1 / me_range=64 / chroma_me=1 / trellis=2 / 8x8dct=1 / cqm=0 / deadzone=21,11 / fast_pskip=0 / chroma_qp_offset=-3 / threads=6 / sliced_threads=0 / nr=0 / decimate=1 / interlaced=0 / bluray_compat=0 / constrained_intra=0 / bframes=8 / b_pyramid=2 / b_adapt=2 / b_bias=0 / direct=3 / weightb=1 / open_gop=0 / weightp=2 / keyint=250 / keyint_min=23 / scenecut=40 / intra_refresh=0 / rc_lookahead=100 / rc=2pass / mbtree=1 / bitrate=12658 / ratetol=1.0 / qcomp=0.60 / qpmin=0 / qpmax=69 / qpstep=4 / cplxblur=20.0 / qblur=0.5 / vbv_maxrate=40000 / vbv_bufsize=30000 / nal_hrd=none / ip_ratio=1.40 / aq=1:0.90
Язык : English
Default : Да
Forced : Нет

Аудио #1
Идентификатор : 2
Формат : AC-3
Формат/Информация : Audio Coding 3
Параметр Endianness формата : Big
Идентификатор кодека : A_AC3
Продолжительность : 1 ч. 50 м.
Вид битрейта : Постоянный
Битрейт : 384 Кбит/сек
Каналы : 6 каналов
Расположение каналов : Front: L C R, Side: L R, LFE
Частота : 48,0 КГц
Частота кадров : 31,250 кадров/сек (1536 SPF)
Битовая глубина : 16 бит
Метод сжатия : С потерями
Размер потока : 304 Мбайт (2%)
Заголовок : DVO, R5
Язык : Russian
Default : Да
Forced : Нет

Аудио #2
Идентификатор : 3
Формат : AC-3
Формат/Информация : Audio Coding 3
Параметр Endianness формата : Big
Идентификатор кодека : A_AC3
Продолжительность : 1 ч. 50 м.
Вид битрейта : Постоянный
Битрейт : 448 Кбит/сек
Каналы : 6 каналов
Расположение каналов : Front: L C R, Side: L R, LFE
Частота : 48,0 КГц
Частота кадров : 31,250 кадров/сек (1536 SPF)
Битовая глубина : 16 бит
Метод сжатия : С потерями
Размер потока : 354 Мбайт (3%)
Заголовок : MVO
Язык : Russian
Default : Нет
Forced : Нет

Аудио #3
Идентификатор : 4
Формат : AC-3
Формат/Информация : Audio Coding 3
Параметр Endianness формата : Big
Идентификатор кодека : A_AC3
Продолжительность : 1 ч. 50 м.
Вид битрейта : Постоянный
Битрейт : 192 Кбит/сек
Каналы : 2 канала
Расположение каналов : Front: L R
Частота : 48,0 КГц
Частота кадров : 31,250 кадров/сек (1536 SPF)
Битовая глубина : 16 бит
Метод сжатия : С потерями
Размер потока : 152 Мбайт (1%)
Заголовок : AVO, А. Гаврилов
Язык : Russian
Default : Нет
Forced : Нет

Аудио #4
Идентификатор : 5
Формат : AC-3
Формат/Информация : Audio Coding 3
Параметр Endianness формата : Big
Идентификатор кодека : A_AC3
Продолжительность : 1 ч. 50 м.
Вид битрейта : Постоянный
Битрейт : 448 Кбит/сек
Каналы : 6 каналов
Расположение каналов : Front: L C R, Side: L R, LFE
Частота : 48,0 КГц
Частота кадров : 31,250 кадров/сек (1536 SPF)
Битовая глубина : 16 бит
Метод сжатия : С потерями
Размер потока : 354 Мбайт (3%)
Заголовок : AVO, Ю. Живов
Язык : Russian
Default : Нет
Forced : Нет

Аудио #5
Идентификатор : 6
Формат : DTS
Формат/Информация : Digital Theater Systems
Режим : 16
Параметр Endianness формата : Big
Идентификатор кодека : A_DTS
Продолжительность : 1 ч. 50 м.
Вид битрейта : Постоянный
Битрейт : 1509 Кбит/сек
Каналы : 6 каналов
Расположение каналов : Front: L C R, Side: L R, LFE
Частота : 48,0 КГц
Частота кадров : 93,750 кадра/сек (512 SPF)
Битовая глубина : 24 бит
Метод сжатия : С потерями
Размер потока : 1,16 Гбайт (10%)
Заголовок : Оригинал
Язык : English
Default : Нет
Forced : Нет

Текст #1
Идентификатор : 7
Формат : UTF-8
Идентификатор кодека : S_TEXT/UTF8
Идентификатор кодека/Информация : UTF-8 Plain Text
Язык : Russian
Default : Нет
Forced : Нет

Текст #2
Идентификатор : 8
Формат : UTF-8
Идентификатор кодека : S_TEXT/UTF8
Идентификатор кодека/Информация : UTF-8 Plain Text
Язык : English
Default : Нет
Forced : Нет

Меню
00:00:00.000 : en:00:00:00.000
00:03:49.604 : en:00:03:49.604
00:07:19.606 : en:00:07:19.606
00:10:25.124 : en:00:10:25.124
00:13:40.236 : en:00:13:40.236
00:19:00.639 : en:00:19:00.639
00:22:06.075 : en:00:22:06.075
00:23:55.893 : en:00:23:55.893
00:28:42.012 : en:00:28:42.012
00:31:01.193 : en:00:31:01.193
00:32:58.435 : en:00:32:58.435
00:37:37.213 : en:00:37:37.213
00:43:12.840 : en:00:43:12.840
00:44:43.222 : en:00:44:43.222
00:50:31.695 : en:00:50:31.695
00:52:23.432 : en:00:52:23.432
00:56:06.863 : en:00:56:06.863
01:00:48.103 : en:01:00:48.103
01:04:44.255 : en:01:04:44.255
01:09:39.926 : en:01:09:39.926
01:13:45.129 : en:01:13:45.129
01:15:38.284 : en:01:15:38.284
01:17:17.842 : en:01:17:17.842
01:20:36.165 : en:01:20:36.165
01:23:00.267 : en:01:23:00.267
01:27:13.270 : en:01:27:13.270
01:33:13.880 : en:01:33:13.880
01:36:14.894 : en:01:36:14.894
01:39:45.980 : en:01:39:45.980
01:42:33.814 : en:01:42:33.814
01:44:03.237 : en:01:44:03.237
01:46:09.363 : en:01:46:09.363


_________________
Проголосуй за трекер Открытый торрент трекер - RUS-MEDIA.ORG

Проголосуй Открытый торрент трекер - RUS-MEDIA.ORG


Вернуться к началу
 Профиль Отправить личное сообщение  
 
   Похожие торренты   Автор   Торрент   Размер 
В этой теме нет новых непрочитанных сообщений. Кровавая Работа / Blood Work [Боевик, триллер, драма, криминал, 2002] BDRip 720p, Mvo

salma3

35 | 18

7.05 ГБ

В этой теме нет новых непрочитанных сообщений. Кровавая гонка / Кровавая езда / Blood Drive [S01] [Драма, ужасы, фантастика, 2017] WEB-DLRip 1080p, Mvo [IdeaFilm]

salma3

13 | 18

30.29 ГБ

В этой теме нет новых непрочитанных сообщений. Кровавая гонка / Кровавая езда / Blood Drive [S01] [Драма, ужасы, фантастика, 2017] WEB-DLRip, Mvo [IdeaFilm]

salma3

36 | 48

8.61 ГБ

В этой теме нет новых непрочитанных сообщений. Кровавая гонка / Кровавая езда / Blood Drive [S01] [Драма, ужасы, фантастика, 2017] WEB-DLRip 720p, Mvo [IdeaFilm]

salma3

8 | 23

18.61 ГБ

В этой теме нет новых непрочитанных сообщений. Кровавая закусочная / Blood Diner [ужасы, комедия, 1987] BDRip 1080p, Avo [Remastered]

salma3

0 | 0

7.54 ГБ

В этой теме нет новых непрочитанных сообщений. Кровавая охота / Blood Hunt [Ужасы, триллер, 2017] BDRemux 1080p, Avo

salma3

20 | 6

15.1 ГБ

В этой теме нет новых непрочитанных сообщений. Кровавая ночь / Blood Night: The Legend of Mary Hatchet [ужасы, 2009] BDRip 1080p, Avo

salma3

169 | 58

5.28 ГБ


Начать новую тему Ответить на тему  [ 1 сообщение ] 




Для Мосгорсуда, Роскомнадзора и рекламодателей:: mosgorsud-torrent[собачка]yandex.ru
cron