Торрент файл
скачать торрент магнет ссылка Добавлен: 24 ноя 2017, 21:53
Размер: 6.19 ГБ
Сидеров: 66
Личеров: 9
Статус: (salma3)
Автор

СообщениеДобавлено: 24 ноя 2017, 21:53 

Не в сети
Супермодератор
Аватара пользователя
Дата регистрации:
15 фев 2012, 16:44
Возраст: 29
Спасибо: 7333 / 2147
Сообщения: 73912
Год выхода: 2017
Жанр: Ужасы, триллер
Режиссер: Эрос Д'Антонио

В ролях: Роберто Д'Антонио, Майкл Сигал, Дэвид Уайт, Аннамария Лоруссо, Франческо Эмуло, Алекс Д'Антонио, Франческо Эмуло и другие

О фильме:
Для писателя жизнь шла своим чередом, но внезапный звонок сестры вынудил его поехать к ней на выручку. Она просила всего лишь присмотреть за кошкой в её отсутствие, однако в доме начали происходить страшные и сверхъестественные явления, что совсем не по душе писателю кошмаров.



Страна: Италия, Funny Dreamers
Продолжительность: 01:26:53
Перевод: Любительский (двухголосый закадровый)[RecentFilms]


Файл
Кодек: MPEG-4 AVC/H.264
Качество: WEBRip 1080p
Видео: 1920x816, 23,976 fps, ~10000 Kbps, 0.266 bit/pixel
Аудио rus: AC3, 48 kHz, 2 ch, 192 Kbps

Реклама: присутствует

Семпл

General
Unique ID : 255148766921321796783032633744188772867 (0xBFF3DD73D550A626BF4359ADE76C1203)
Complete name : F:FilmsHaunted.2017.1080p.WEBRip.RecentFilmsHaunted.2017.1080p.WEBRip.RecentFilms.mkv
Format : Matroska
Format version : Version 4 / Version 2
File size : 6.19 GiB
Duration : 1h 26mn
Overall bit rate : 10.2 Mbps
Encoded date : UTC 2017-11-24 15:20:48
Writing application : mkvmerge v17.0.0 ('Be Ur Friend') 64-bit
Writing library : libebml v1.3.5 + libmatroska v1.4.8

Video
ID : 1
Format : AVC
Format/Info : Advanced Video Codec
Format profile : High@L4
Format settings, CABAC : Yes
Format settings, ReFrames : 4 frames
Codec ID : V_MPEG4/ISO/AVC
Duration : 1h 26mn
Bit rate : 10 000 Kbps
Width : 1 920 pixels
Height : 816 pixels
Display aspect ratio : 2.35:1
Frame rate mode : Constant
Frame rate : 24.000 fps
Color space : YUV
Chroma subsampling : 4:2:0
Bit depth : 8 bits
Scan type : Progressive
Bits/(Pixel*Frame) : 0.266
Stream size : 6.07 GiB (98%)
Writing library : x264 core 148
Encoding settings : cabac=1 / ref=3 / deblock=1:0:0 / analyse=0x3:0x113 / me=hex / subme=7 / psy=1 / psy_rd=1.00:0.00 / mixed_ref=1 / me_range=16 / chroma_me=1 / trellis=1 / 8x8dct=1 / cqm=0 / deadzone=21,11 / fast_pskip=1 / chroma_qp_offset=-2 / threads=12 / lookahead_threads=2 / sliced_threads=0 / nr=0 / decimate=1 / interlaced=0 / bluray_compat=0 / constrained_intra=0 / bframes=3 / b_pyramid=2 / b_adapt=1 / b_bias=0 / direct=1 / weightb=1 / open_gop=0 / weightp=2 / keyint=250 / keyint_min=24 / scenecut=40 / intra_refresh=0 / rc_lookahead=40 / rc=abr / mbtree=1 / bitrate=10000 / ratetol=1.0 / qcomp=0.60 / qpmin=0 / qpmax=69 / qpstep=4 / ip_ratio=1.40 / aq=1:1.00
Language : English
Default : Yes
Forced : No

Audio
ID : 2
Format : AC-3
Format/Info : Audio Coding 3
Mode extension : CM (complete main)
Format settings, Endianness : Big
Codec ID : A_AC3
Duration : 1h 26mn
Bit rate mode : Constant
Bit rate : 192 Kbps
Channel(s) : 2 channels
Channel positions : Front: L R
Sampling rate : 48.0 KHz
Frame rate : 31.250 fps (1536 spf)
Compression mode : Lossy
Stream size : 119 MiB (2%)
Default : Yes
Forced : No



Релиз от: RecentFilms


_________________
Проголосуй за трекер Открытый торрент трекер - RUS-MEDIA.ORG

Проголосуй Открытый торрент трекер - RUS-MEDIA.ORG


Вернуться к началу
 Профиль Отправить личное сообщение  
 
   Похожие торренты   Автор   Торрент   Размер 
В этой теме нет новых непрочитанных сообщений. Дом с призраками / Haunted [Ужасы, триллер, 2017] WEBRip, Dvo

salma3

3 | 1

1.32 ГБ

В этой теме нет новых непрочитанных сообщений. Дом с призраками / Haunted [Ужасы, триллер, 2017] BDRip-AVC, Dvo

salma3

8 | 1

745.82 МБ

В этой теме нет новых непрочитанных сообщений. Медовый месяц с призраками / Haunted Honeymoon [Комедия, ужасы, 1986] BDRemux 1080p, Mvo+Dvo+Sub

salma3

8 | 3

16.73 ГБ

В этой теме нет новых непрочитанных сообщений. Медовый месяц с призраками / Haunted Honeymoon [Комедия, ужасы, мелодрама, 1986] BDRip, Mvo

salma3

42 | 5

1.46 ГБ

В этой теме нет новых непрочитанных сообщений. Дом ночных призраков / House On Haunted Hill [ужасы, триллер, детектив, 1999] BDRemux 1080p, Dub

salma3

12 | 7

22.07 ГБ

В этой теме нет новых непрочитанных сообщений. Дом ночных призраков / House On Haunted Hill [ужасы, триллер, детектив, 1999] BDRip 1080p, Dub

salma3

0 | 0

14.99 ГБ

В этой теме нет новых непрочитанных сообщений. Оно / It [ужасы, триллер, драма , 2017] WEBRip 1080p, Mvo

salma3

0 | 0

4.02 ГБ


Начать новую тему Ответить на тему  [ 1 сообщение ] 




Для Мосгорсуда, Роскомнадзора и рекламодателей:: mosgorsud-torrent[собачка]yandex.ru
cron