Торрент файл
скачать торрент магнет ссылка Добавлен: 23 ноя 2017, 21:12
Размер: 6.61 ГБ
Сидеров: 6
Личеров: 24
Статус: (salma3)
Автор

СообщениеДобавлено: 23 ноя 2017, 21:12 

Не в сети
Супермодератор
Аватара пользователя
Дата регистрации:
15 фев 2012, 16:44
Возраст: 28
Спасибо: 7290 / 2147
Сообщения: 70380
Год выхода: 2002
Жанр: комедия, криминал
Режиссер: Дэвид Семел

В ролях: Джошуа Джексон, Джейми Кинг, ДиДжей Куаллс, Мэттью Дэвис, Райан Херст, Джон Мелленкамп, Сэм МакМюррей, Томас Хейден Чёрч, Джулиан Дульсе Вида, Элизабет Барондес

О фильме:
Когда Господь создавал Техас, то он явно был не в ударе. По крайней мере, так считают влюбленные друг в друга Эрл и Бэби. Выросшие в самом обычном городишке этого штата они только и мечтают, как бы побыстрее слинять отсюда. И конечно в Калифорнию, в Лос-Анджелес, где можно попытать счастья стать богатыми и знаменитыми! Увы все эти грандиозные планы героев упираются в тупик имя которому — Джуниор, кузен Бэби. Этот чудак умеет влипать в неприятности как никто другой. И как никто другой — втягивать в свои проблемы других. Не успевают наши голубки и глазом моргнуть, как оказываются по уши увязшими в аферах Джуниора. И если в течение 48 часов им не удастся выпутаться из них и выпутать кузена, то Эрл и Бэби могут забыть о своих планах насчет Лос-Анджелеса…



Страна: США
Продолжительность: 01:28:01
Перевод: Профессиональный [многоголосый]

Файл
Кодек: x264
Качество: WEBRip 1080p
Видео: MPEG-4 AVC, 9981 Кбит/с, 1920x1080, 23.976 кадр/с
Аудио #1: MP3, 2 ch, 128 Кбит/с | Русский
Аудио #2: E-AC3, 6 ch, 640 Кбит/с | Aнглийский
Субтитры: Английские



Общее
Уникальный идентификатор : 238509837340322799178660559089298883787 (0xB36F52E303B334C1AFF502E809B8C4CB)
Полное имя : Lone.Star.State.of.Mind.2002.WEBRip.1080p.mkv
Формат : Matroska
Версия формата : Version 4 / Version 2
Размер файла : 6,61 Гбайт
Продолжительность : 1 ч. 28 м.
Режим общего битрейта : Переменный
Общий поток : 10,7 Мбит/сек
Название фильма : Lone.Star.State.of.Mind.2002.WEB-DLRip
Дата кодирования : UTC 2017-11-23 05:23:28
Программа кодирования : mkvmerge v12.0.0 ('Trust / Lust') 32bit
Библиотека кодирования : libebml v1.3.4 + libmatroska v1.4.5
Обложка : Yes
Attachments : cover.jpg

Видео
Идентификатор : 1
Формат : AVC
Формат/Информация : Advanced Video Codec
Профиль формата : High@L4
Параметр CABAC формата : Да
Параметр ReFrames формата : 4 кадра
Идентификатор кодека : V_MPEG4/ISO/AVC
Продолжительность : 1 ч. 28 м.
Вид битрейта : Переменный
Битрейт : 9981 Кбит/сек
Максимальный битрейт : 15,0 Мбит/сек
Ширина : 1920 пикселей
Высота : 1080 пикселей
Соотношение сторон : 16:9
Режим частоты кадров : Постоянный
Частота кадров : 23,976 (24000/1001) кадра/сек
Цветовое пространство : YUV
Субдискретизация насыщенности : 4:2:0
Битовая глубина : 8 бит
Тип развёртки : Прогрессивная
Бит/(Пиксели*Кадры) : 0.201
Размер потока : 6,14 Гбайт (93%)
Заголовок : Lone.Star.State.of.Mind.2002.1080p.AMZN.WEB-DL.DDP5.1.x264-monkee
Библиотека кодирования : x264 core 148 r2623 d5b2374
Настройки программы : cabac=1 / ref=4 / deblock=1:-1:-1 / analyse=0x3:0x133 / me=umh / subme=9 / psy=1 / psy_rd=1.00:0.15 / mixed_ref=1 / me_range=24 / chroma_me=1 / trellis=2 / 8x8dct=1 / cqm=0 / deadzone=21,11 / fast_pskip=1 / chroma_qp_offset=-3 / threads=34 / lookahead_threads=5 / sliced_threads=0 / nr=150 / decimate=1 / interlaced=0 / bluray_compat=0 / constrained_intra=0 / bframes=8 / b_pyramid=2 / b_adapt=2 / b_bias=0 / direct=3 / weightb=1 / open_gop=0 / weightp=2 / keyint=120 / keyint_min=61 / scenecut=0 / intra_refresh=0 / rc_lookahead=120 / rc=crf / mbtree=1 / crf=18.0 / qcomp=0.60 / qpmin=0 / qpmax=69 / qpstep=4 / vbv_maxrate=15000 / vbv_bufsize=31250 / crf_max=0.0 / nal_hrd=vbr / filler=0 / ip_ratio=1.40 / aq=3:1.00
Default : Да
Forced : Нет
Цветовой диапазон : Limited
Основные цвета : BT.709
Характеристики трансфера : BT.709
Коэффициенты матрицы : BT.709

Аудио #1
Идентификатор : 2
Формат : MPEG Audio
Версия формата : Version 1
Профиль формата : Layer 3
Идентификатор кодека : A_MPEG/L3
Идентификатор кодека/Подсказка : MP3
Продолжительность : 1 ч. 28 м.
Вид битрейта : Постоянный
Битрейт : 128 Кбит/сек
Каналы : 2 канала
Частота : 48,0 КГц
Частота кадров : 41,667 кадра/сек (1152 spf)
Метод сжатия : С потерями
Размер потока : 80,6 Мбайт (1%)
Заголовок : MVO
Библиотека кодирования : LAME3.98.2
Язык : Russian
Default : Да
Forced : Нет

Аудио #2
Идентификатор : 3
Формат : E-AC-3
Формат/Информация : Enhanced Audio Coding 3
Параметр Endianness формата : Big
Идентификатор кодека : A_EAC3
Продолжительность : 1 ч. 28 м.
Вид битрейта : Постоянный
Битрейт : 640 Кбит/сек
Каналы : 6 каналов
Расположение каналов : Front: L C R, Side: L R, LFE
Частота : 48,0 КГц
Частота кадров : 187,500 кадров/сек (256 spf)
Метод сжатия : С потерями
Размер потока : 403 Мбайт (6%)
Язык : English
ServiceKind/String : Complete Main
Default : Нет
Forced : Нет

Текст
Идентификатор : 4
Формат : UTF-8
Идентификатор кодека : S_TEXT/UTF8
Идентификатор кодека/Информация : UTF-8 Plain Text
Продолжительность : 1 ч. 23 м.
Битрейт : 78 бит/сек
ElementCount : 1167
Размер потока : 47,9 Кбайт (0%)
Язык : English
Default : Нет
Forced : Нет



_________________
Проголосуй за трекер Открытый торрент трекер - RUS-MEDIA.ORG

Проголосуй Открытый торрент трекер - RUS-MEDIA.ORG


Вернуться к началу
 Профиль Отправить личное сообщение  
 
   Похожие торренты   Автор   Торрент   Размер 
В этой теме нет новых непрочитанных сообщений. Штат одинокой звезды / Lone Star State of Mind [комедия, криминал, 2002] WEBRip, Mvo

salma3

0 | 0

744.95 МБ

В этой теме нет новых непрочитанных сообщений. Штат одинокой звезды / Lone Star State of Mind [комедия, криминал, 2002] WEBRip 720p, Mvo

salma3

1 | 20

2.88 ГБ

В этой теме нет новых непрочитанных сообщений. Штат одинокой звезды / Lone Star State of Mind (2002) WEBRip, Mvo

salma3

24 | 9

1.45 ГБ

В этой теме нет новых непрочитанных сообщений. Красный штат / Red State [Триллер, драма, 2011] BDRip 1080p, Dub

salma3

16 | 15

6.17 ГБ

В этой теме нет новых непрочитанных сообщений. Колеблющийся штат / Swing State [мелодрама, комедия, музыка, 2016] WEB-DLRip, Mvo

salma3

100 | 42

1.37 ГБ

В этой теме нет новых непрочитанных сообщений. Свободный штат Джонса / Free State of Jones ( боевик, драма, военный, биография, история, 2016) Blu-Ray 1080p | L1

marya111

48 | 32

41.5 ГБ

В этой теме нет новых непрочитанных сообщений. Свободный штат Джонса / Free State of Jones [Боевик, драма, военный, биография, история, 2016] BDRemux 1080p, Dvo

salma3

16 | 19

29.93 ГБ


Начать новую тему Ответить на тему  [ 1 сообщение ] 




Для Мосгорсуда, Роскомнадзора и рекламодателей:: mosgorsud-torrent[собачка]yandex.ru
cron