Торрент файл
скачать торрент магнет ссылка Добавлен: 22 ноя 2017, 01:01
Размер: 4.08 ГБ
Сидеров: 16
Личеров: 2
Статус: (salma3)
Автор

СообщениеДобавлено: 22 ноя 2017, 01:01 

Не в сети
Супермодератор
Аватара пользователя
Дата регистрации:
15 фев 2012, 16:44
Возраст: 28
Спасибо: 7205 / 2147
Сообщения: 65464
✧ Год выхода: 2005
Жанр: драма, триллер, экранизация
✧ Выпущено: США, Канада
✧ Продолжительность: 01:51:56
✧ Перевод: Дублированный, профессиональный двухголосый
✧ Режиссер: Гриффин Данн / Griffin Dunne
✧ В ролях: Дайан Лэйн, Антон Ельчин, Дональд Сазерленд, Крис Эванс, Кристен Стюарт, Пас де ла Уэрта, Блу Манкума, Элизабет Перкинс, Кристофер Шайер, Гари Чок, Райан МакДональд, Кейли Дей, Аарон Брукс, Тич Грант, Уилл Лиман

✧ О фильме:
Экранизация одноименного романа Дирка Уиттенборна. Лиз — физиотерапевт, среди ее клиентов очень богатые люди. В жизни этой очаровательной молодой женщине сопутствует успех. После разрыва с мужем она сама воспитывает сына-подростка. Ее сын Финн нуждается в родительской заботе и много времени проводит в мыслях об отце, знаменитом ученом-антропологе, изучающем в дебрях Амазонии нравы первобытного племени, называемого за безжалостные обычаи и дикие нравы «Жестокими людьми». Чтобы сменить обстановку и больше уделять времени ребенку, Лиз принимает приглашение мультимиллионера Огдена Осборна, одного из своих влиятельных клиентов, стать его личным врачом и поселиться на роскошном ранчо. Избранное общество готово принять в свой круг прекрасную протеже Осборна… Она не подозревала, что ее благополучие и радость вызывает у кого-то жгучую зависть, ревность и желание мстить. Таинственный враг знает, как дорог Лиз ее ребенок, и наносит удар, пытаясь убить ее сына. Лиз начинает собственное расследование, и вскоре начинает понимать, что она и ее ребенок оказались во власти по-настоящему «жестоких людей».



Файл
✧ Качество: WEB-DL 720p
✧ Видео: MPEG-4 AVC, 1280x692 (1.85:1), 4058 kbps, 23.976 fps
✧ Аудио 1: Russian: AC3 / 5.1 / 48 kHz / 448 kbps - DUB, R5
✧ Аудио 2: Russian: AC3 / 2.0 / 48 kHz / 224 kbps - DVO
✧ Аудио 3: English: AC3 / 5.1 / 48 kHz / 384 kbps - Оригинал
✧ Субтитры: Русские, английские
✧ Навигация по главам: есть



Общее
Уникальный идентификатор : 176049434941575394356391161978764553192 (0x8471E349C95ABA869471FCC49A366BE8)
Полное имя : Fierce.People.2005.WEB-DL.720p.mkv
Формат : Matroska
Версия формата : Version 2
Размер файла : 4,08 Гбайт
Продолжительность : 1 ч. 51 м.
Общий поток : 5218 Кбит/сек
Название фильма : Fierce People (2005)
Дата кодирования : UTC 2017-11-21 19:13:45
Программа кодирования : mkvmerge v5.8.0 ('No Sleep / Pillow') built on Sep 2 2012 15:37:04
Библиотека кодирования : libebml v1.2.3 + libmatroska v1.3.0

Видео
Идентификатор : 1
Формат : AVC
Формат/Информация : Advanced Video Codec
Профиль формата : High@L3.1
Параметр CABAC формата : Нет
Параметр RefFrames формата : 2 кадра
Идентификатор кодека : V_MPEG4/ISO/AVC
Продолжительность : 1 ч. 51 м.
Битрейт : 4058 Кбит/сек
Ширина : 1280 пикселей
Высота : 692 пикселя
Соотношение сторон : 1,85:1
Режим частоты кадров : Постоянный
Частота кадров : 23,976 кадра/сек
Цветовое пространство : YUV
Субдискретизация насыщенности : 4:2:0
Битовая глубина : 8 бит
Тип развёртки : Прогрессивная
Бит/(Пиксели*Кадры) : 0.191
Размер потока : 3,17 Гбайт (78%)
Язык : English
Default : Да
Forced : Нет
Цветовой диапазон : Limited
Основные цвета : BT.709
Характеристики трансфера : BT.709
Коэффициенты матрицы : BT.709

Аудио #1
Идентификатор : 2
Формат : AC-3
Формат/Информация : Audio Coding 3
Параметр Endianness формата : Big
Идентификатор кодека : A_AC3
Продолжительность : 1 ч. 51 м.
Вид битрейта : Постоянный
Битрейт : 448 Кбит/сек
Каналы : 6 каналов
Расположение каналов : Front: L C R, Side: L R, LFE
Частота : 48,0 КГц
Частота кадров : 31,250 кадров/сек (1536 SPF)
Битовая глубина : 16 бит
Метод сжатия : С потерями
Размер потока : 359 Мбайт (9%)
Заголовок : AC3 6ch 448kbps - дубляж
Язык : Russian
Default : Да
Forced : Нет

Аудио #2
Идентификатор : 3
Формат : AC-3
Формат/Информация : Audio Coding 3
Параметр Endianness формата : Big
Идентификатор кодека : A_AC3
Продолжительность : 1 ч. 51 м.
Вид битрейта : Постоянный
Битрейт : 224 Кбит/сек
Каналы : 2 канала
Расположение каналов : Front: L R
Частота : 48,0 КГц
Частота кадров : 31,250 кадров/сек (1536 SPF)
Битовая глубина : 16 бит
Метод сжатия : С потерями
Размер потока : 179 Мбайт (4%)
Заголовок : AC3 2ch 224kbps - двухголосый
Язык : Russian
Default : Нет
Forced : Нет

Аудио #3
Идентификатор : 4
Формат : AC-3
Формат/Информация : Audio Coding 3
Параметр Endianness формата : Big
Идентификатор кодека : A_AC3
Продолжительность : 1 ч. 51 м.
Вид битрейта : Постоянный
Битрейт : 384 Кбит/сек
Каналы : 6 каналов
Расположение каналов : Front: L C R, Side: L R, LFE
Частота : 48,0 КГц
Частота кадров : 31,250 кадров/сек (1536 SPF)
Битовая глубина : 16 бит
Метод сжатия : С потерями
Размер потока : 307 Мбайт (7%)
Заголовок : AC3 6ch 384kbps - original
Язык : English
Default : Нет
Forced : Нет

Текст #1
Идентификатор : 5
Формат : UTF-8
Идентификатор кодека : S_TEXT/UTF8
Идентификатор кодека/Информация : UTF-8 Plain Text
Язык : Russian
Default : Нет
Forced : Нет

Текст #2
Идентификатор : 6
Формат : UTF-8
Идентификатор кодека : S_TEXT/UTF8
Идентификатор кодека/Информация : UTF-8 Plain Text
Язык : English
Default : Нет
Forced : Нет

Меню
00:00:00.000 : en: 00:00:00
00:08:59.128 : en: 00:08:59
00:17:11.700 : en: 00:17:11
00:25:26.648 : en: 00:25:26
00:33:53.234 : en: 00:33:53
00:40:26.165 : en: 00:40:26
00:51:06.383 : en: 00:51:06
01:05:38.872 : en: 01:05:38
01:14:25.644 : en: 01:14:25
01:22:13.817 : en: 01:22:13
01:36:07.726 : en: 01:36:07
01:45:05.801 : en: 01:45:05


_________________
Проголосуй за трекер Открытый торрент трекер - RUS-MEDIA.ORG

Проголосуй Открытый торрент трекер - RUS-MEDIA.ORG


Вернуться к началу
 Профиль Отправить личное сообщение  
 
   Похожие торренты   Автор   Торрент   Размер 
В этой теме нет новых непрочитанных сообщений. Люди во мраке / The Shadow People [триллер, 2017] WEBRip, Mvo

salma3

370 | 108

1.37 ГБ

В этой теме нет новых непрочитанных сообщений. Земляне / People of Earth [S02] [фантастика, комедия, триллер, 2017] WEBRip 720p, Mvo [Good People]

salma3

5 | 5

5.18 ГБ

В этой теме нет новых непрочитанных сообщений. Стыдливые люди / Shy People [Драма, 1987] DVD5, Mvo

salma3

0 | 0

4.3 ГБ

В этой теме нет новых непрочитанных сообщений. Стыдливые люди / Shy People [Драма, 1987] HDTV 1080i, Dvo [НТВ+]

salma3

0 | 0

6.24 ГБ

В этой теме нет новых непрочитанных сообщений. Обыкновенные люди / Ordinary People [драма, 1980] HDTV 1080i, Dvo [НТВ+]

salma3

9 | 4

7.54 ГБ

В этой теме нет новых непрочитанных сообщений. Нужные люди / People I Know [драма, криминал, детектив, 2002] BDRip 1080p, Dvo

salma3

44 | 25

9.22 ГБ

В этой теме нет новых непрочитанных сообщений. Люди, забытые временем / The People That Time Forgot [Фантастика, приключения, драма, 1977] HDTVRip, Dvo

salma3

101 | 14

742.91 МБ


Начать новую тему Ответить на тему  [ 1 сообщение ] 




Для Мосгорсуда, Роскомнадзора и рекламодателей:: mosgorsud-torrent[собачка]yandex.ru
cron