Торрент файл
скачать торрент магнет ссылка Добавлен: 18 ноя 2017, 14:48
Размер: 7.05 ГБ
Сидеров: 13
Личеров: 8
Статус: (salma3)
Автор

СообщениеДобавлено: 18 ноя 2017, 14:48 

Не в сети
Супермодератор
Аватара пользователя
Дата регистрации:
15 фев 2012, 16:44
Возраст: 28
Спасибо: 7290 / 2147
Сообщения: 70629
Год выхода: 1970
Жанр: боевик, драма, военный
Режиссер: Фил Карлсон, Франко Кирино

В ролях: Рок Хадсон, Сильва Кошина, Серджо Фантони, Джакомо Росси-Стюарт, Жак Серна, Марк Коллеано, Мауро Гравина, Джон Фордайс, Джузеппе Кассуто

О фильме:
Диверсионная группа высажена за линией фронта, её задача взорвать стратегическую дамбу. Однако, группа попадает в засаду, и только её лидер выживает. Его подбирает группа молодых людей, которые заключают с ним сделку — что они помогут ему снести дамбу, если он поможет им отомстить немцам, захватившим их деревню и убившим их родителей...



Страна: Италия, США
Продолжительность: 01:49:55
Перевод: Профессиональный двухголосый [НТВ+]

Файл
Кодек: x264
Качество: BDRip 720p
Видео: MPEG-4 AVC, 8539 Кбит/с, 1280x688, 23.976 кадр/с
Аудио #1: AC3, 2 ch, 192 Кбит/с | Русский
Аудио #2: AC3, 2 ch, 448 Кбит/с | Aнглийский


Общее
Уникальный идентификатор : 209291969917458006971464269910369744231 (0x9D742ACD8360C153B776587C8189B567)
Полное имя : Hornets.Nest.1970.BDRip.720p.mkv
Формат : Matroska
Версия формата : Version 4 / Version 2
Размер файла : 7,05 Гбайт
Продолжительность : 1 ч. 49 м.
Общий поток : 9181 Кбит/сек
Название фильма : Hornets.Nest.1970.BDRip.720p by Koenig
Дата кодирования : UTC 2017-11-18 09:25:19
Программа кодирования : mkvmerge v12.0.0 ('Trust / Lust') 32bit
Библиотека кодирования : libebml v1.3.4 + libmatroska v1.4.5
Обложка : Yes
Attachments : cover.jpg

Видео
Идентификатор : 1
Формат : AVC
Формат/Информация : Advanced Video Codec
Профиль формата : High@L4.1
Параметр CABAC формата : Да
Параметр ReFrames формата : 9 кадров
Идентификатор кодека : V_MPEG4/ISO/AVC
Продолжительность : 1 ч. 49 м.
Битрейт : 8539 Кбит/сек
Ширина : 1280 пикселей
Высота : 688 пикселей
Соотношение сторон : 1,85:1
Режим частоты кадров : Постоянный
Частота кадров : 23,976 (24000/1001) кадра/сек
Цветовое пространство : YUV
Субдискретизация насыщенности : 4:2:0
Битовая глубина : 8 бит
Тип развёртки : Прогрессивная
Бит/(Пиксели*Кадры) : 0.404
Размер потока : 6,56 Гбайт (93%)
Заголовок : Hornets.Nest.1970.BDRip.720p
Библиотека кодирования : x264 core 152 r2851 ba24899
Настройки программы : cabac=1 / ref=9 / deblock=1:-3:-3 / analyse=0x3:0x133 / me=umh / subme=10 / psy=1 / psy_rd=1.03:0.05 / mixed_ref=1 / me_range=32 / chroma_me=1 / trellis=2 / 8x8dct=1 / cqm=0 / deadzone=21,11 / fast_pskip=0 / chroma_qp_offset=-3 / threads=3 / lookahead_threads=1 / sliced_threads=0 / nr=0 / decimate=1 / interlaced=0 / bluray_compat=0 / constrained_intra=0 / bframes=11 / b_pyramid=2 / b_adapt=2 / b_bias=0 / direct=3 / weightb=1 / open_gop=0 / weightp=2 / keyint=240 / keyint_min=23 / scenecut=40 / intra_refresh=0 / rc_lookahead=40 / rc=2pass / mbtree=1 / bitrate=8539 / ratetol=1.0 / qcomp=0.60 / qpmin=10 / qpmax=51 / qpstep=4 / cplxblur=20.0 / qblur=0.5 / vbv_maxrate=50000 / vbv_bufsize=62500 / nal_hrd=none / filler=0 / ip_ratio=1.40 / aq=1:1.00
Default : Да
Forced : Нет

Аудио #1
Идентификатор : 2
Формат : AC-3
Формат/Информация : Audio Coding 3
Параметр Endianness формата : Big
Идентификатор кодека : A_AC3
Продолжительность : 1 ч. 49 м.
Вид битрейта : Постоянный
Битрейт : 192 Кбит/сек
Каналы : 2 канала
Расположение каналов : Front: L R
Частота : 48,0 КГц
Частота кадров : 31,250 кадров/сек (1536 spf)
Битовая глубина : 16 бит
Метод сжатия : С потерями
Размер потока : 151 Мбайт (2%)
Заголовок : DVO - НТВ+
Язык : Russian
ServiceKind/String : Complete Main
Default : Да
Forced : Нет

Аудио #2
Идентификатор : 3
Формат : AC-3
Формат/Информация : Audio Coding 3
Параметр Endianness формата : Big
Идентификатор кодека : A_AC3
Продолжительность : 1 ч. 49 м.
Вид битрейта : Постоянный
Битрейт : 448 Кбит/сек
Каналы : 2 канала
Расположение каналов : Front: L R
Частота : 48,0 КГц
Частота кадров : 31,250 кадров/сек (1536 spf)
Битовая глубина : 16 бит
Метод сжатия : С потерями
Размер потока : 352 Мбайт (5%)
Язык : English
ServiceKind/String : Complete Main
Default : Нет
Forced : Нет

Меню
00:00:00.000 : en:
00:05:00.000 : en:
00:10:00.000 : en:
00:15:00.000 : en:
00:20:00.000 : en:
00:25:00.000 : en:
00:30:00.000 : en:
00:35:00.000 : en:
00:40:00.000 : en:
00:45:00.000 : en:
00:50:00.000 : en:
00:55:00.000 : en:
01:00:00.000 : en:
01:05:00.000 : en:
01:10:00.000 : en:
01:15:00.000 : en:
01:20:00.000 : en:
01:25:00.000 : en:
01:30:00.000 : en:
01:35:00.000 : en:
01:40:00.000 : en:
01:45:00.000 : en:



_________________
Проголосуй за трекер Открытый торрент трекер - RUS-MEDIA.ORG

Проголосуй Открытый торрент трекер - RUS-MEDIA.ORG


Вернуться к началу
 Профиль Отправить личное сообщение  
 
   Похожие торренты   Автор   Торрент   Размер 
В этой теме нет новых непрочитанных сообщений. Гнездо дракона / Dragon Nest: Warriors' Dawn (Юэфэн Сун) [фэнтези, приключения, семейный, 2014] BDRip 1080p, Dub [3D-Video | BD Rus]

Dracon

355 | 21

7.56 ГБ

В этой теме нет новых непрочитанных сообщений. Кромвель / Cromwell [драма, военный, биография, история, 1970] BDRip 720p, Dvo [НТВ+]

salma3

147 | 12

3.72 ГБ

В этой теме нет новых непрочитанных сообщений. Прощай, Сабата / Indio Black, sai che ti dico: Sei un gran figlio di... [боевик, вестерн, военный, 1970] BDRip, Dvo [НТВ+]

salma3

28 | 5

1.45 ГБ

В этой теме нет новых непрочитанных сообщений. Кромвель / Cromwell [драма, военный, биография, история, 1970] BDRip, Dvo [НТВ+]

salma3

109 | 39

1.46 ГБ

В этой теме нет новых непрочитанных сообщений. Кромвель / Cromwell [драма, военный, биография, история, 1970] BDRip 1080p, Dvo

salma3

38 | 12

8.61 ГБ

В этой теме нет новых непрочитанных сообщений. Ю-571 / U-571 [Боевик, драма, военный, 2000] BDRip 720p, Dub [Open Matte]

salma3

0 | 0

9.77 ГБ

В этой теме нет новых непрочитанных сообщений. Взвод / Platoon [боевик, драма, военный, 1986] BDRip 720p, Dvo

salma3

0 | 0

10.81 ГБ


Начать новую тему Ответить на тему  [ 1 сообщение ] 




Для Мосгорсуда, Роскомнадзора и рекламодателей:: mosgorsud-torrent[собачка]yandex.ru
cron