Торрент файл
скачать торрент магнет ссылка Добавлен: 16 ноя 2017, 01:57
Размер: 8.12 ГБ
Сидеров: 6
Личеров: 2
Статус: (salma3)
Автор

СообщениеДобавлено: 16 ноя 2017, 01:57 

Не в сети
Супермодератор
Аватара пользователя
Дата регистрации:
15 фев 2012, 16:44
Возраст: 28
Спасибо: 6918 / 2147
Сообщения: 52705
✧ Год выхода: 1994
Жанр: боевик, триллер, драма
✧ Выпущено: США, Япония
✧ Продолжительность: 01:55:13
✧ Перевод: Профессиональный многоголосый, авторский одноголосый
✧ Режиссер: Роджер Дональдсон
✧ В ролях: Алек Болдуин, Ким Бейсингер, Майкл Мэдсен, Джеймс Вудс, Дэвид Морс, Дженнифер Тилли, Джеймс Стивенс, Ричард Фарнсуорт, Филип Сеймур Хоффман, Бертон Гиллиам, Ройс Д. Эпплгейт, Дэниэл Вильярреаль, Скотт МакКенна, Алекс Колон, Джастин Уильямс, Пеппи Сандерс, Джо Энн Сото, Луис Мартинес, Бутс Саутерленд, Морис Ороско, Джордж Доббс
✧ О фильме:
Профессиональный взломщик сейфов Док МакКой помог молодому преступнику-мексиканцу сбежать из-за решётки, доставил парня его дяде, но не почувствовал, откуда грозит настоящая опасность, и, в результате, сам попал в тюрьму. Спустя некоторое время Кэрол МакКой, жена Дока, вступила в связь с продажным инспектором Джеком Беньоном, и тот поспособствовал досрочному освобождению Дока. Однако у Джека имелись чрезвычайно далеко идущие планы на ближайшее будущее Дока и Кэрол: под давлением шантажиста Беньона супруги должны были совершить ограбление банка. После удачного ограбления их предают сообщники, и начинается смертельная погоня.


MPAA: R - Лицам до 17 лет обязательно присутствие взрослого

Файл
✧ Качество: BDRip 720p
✧ Видео: MPEG4 AVC, 1280x544 (2.35:1), 6024 Кбит/с, 23.976 кадр/с, 0.361 bpp
✧ Аудио 1: Russian: 48 kHz, AC3, 2.0 ch, 192 kbps - MVO, т/к Че
✧ Аудио 2: Russian: 48 kHz, AC3, 2.0 ch, 192 kbps - MVO, н/a
✧ Аудио 3: Russian: 48 kHz, AC3, 5.1 ch, 448 kbps - AVO, А. Дольский
✧ Аудио 4: Russian: 48 kHz, AC3, 5.1 ch, 448 kbps - AVO, А. Гаврилов
✧ Аудио 5: Russian: 48 kHz, AC3, 5.1 ch, 448 kbps - AVO, Ю. Живов
✧ Аудио 6: Russian: 48 kHz, AC3, 5.1 ch, 448 kbps - AVO, М. Яроцкий (Ненормативная лексика)
✧ Аудио 7: Russian: 48 kHz, AC3, 2.0 ch, 192 kbps - AVO, В. Махонько
✧ Аудио 8: Ukrainian: 48 kHz, AC3, 2.0 ch, 192 kbps - MVO, т/к Украина
✧ Аудио 9: English: 48 kHz, DTS, 5.1 ch, 1509 kbps - Оригинал
✧ Субтитры: Русские, украинские, английские
✧ Навигация по главам: есть



Общее
Уникальный идентификатор : 203436397309797899908654176708387806191 (0x990C6CC8965BBCFCB87349A21B5A1BEF)
Полное имя : The.Getaway.1994.BDRip.720p.mkv
Формат : Matroska
Версия формата : Version 2
Размер файла : 8,12 Гбайт
Продолжительность : 1 ч. 55 м.
Общий поток : 10,1 Мбит/сек
Дата кодирования : UTC 2017-11-15 16:55:56
Программа кодирования : mkvmerge v5.8.0 ('No Sleep / Pillow') built on Sep 2 2012 15:37:04
Библиотека кодирования : libebml v1.2.3 + libmatroska v1.3.0

Видео
Идентификатор : 1
Формат : AVC
Формат/Информация : Advanced Video Codec
Профиль формата : High@L4.1
Параметр CABAC формата : Да
Параметр RefFrames формата : 12 кадров
Идентификатор кодека : V_MPEG4/ISO/AVC
Продолжительность : 1 ч. 55 м.
Битрейт : 6024 Кбит/сек
Ширина : 1280 пикселей
Высота : 544 пикселя
Соотношение сторон : 2,35:1
Режим частоты кадров : Постоянный
Частота кадров : 23,976 (24000/1001) кадра/сек
Цветовое пространство : YUV
Субдискретизация насыщенности : 4:2:0
Битовая глубина : 8 бит
Тип развёртки : Прогрессивная
Бит/(Пиксели*Кадры) : 0.361
Размер потока : 4,69 Гбайт (58%)
Заголовок : The.Getaway.1994.BDRip.720p
Библиотека кодирования : x264 core 148 r2744kMod b97ae06
Настройки программы : cabac=1 / ref=12 / deblock=1:-3:-3 / analyse=0x3:0x113 / me=umh / subme=11 / psy=1 / fade_compensate=0.00 / psy_rd=1.00:0.10 / mixed_ref=1 / me_range=32 / chroma_me=1 / trellis=2 / 8x8dct=1 / cqm=0 / deadzone=21,11 / fast_pskip=0 / chroma_qp_offset=-3 / threads=6 / lookahead_threads=2 / sliced_threads=0 / nr=0 / decimate=0 / interlaced=0 / bluray_compat=0 / constrained_intra=0 / bframes=9 / b_pyramid=2 / b_adapt=2 / b_bias=0 / direct=3 / weightb=1 / open_gop=0 / weightp=2 / keyint=250 / keyint_min=23 / scenecut=40 / intra_refresh=0 / rc=2pass / mbtree=0 / bitrate=6024 / ratetol=1.0 / qcomp=0.60 / qpmin=0 / qpmax=69 / qpstep=4 / cplxblur=20.0 / qblur=0.5 / ip_ratio=1.40 / pb_ratio=1.30 / aq=2:0.80
Язык : English
Default : Да
Forced : Нет
Цветовой диапазон : Limited
Основные цвета : BT.709
Характеристики трансфера : BT.709
Коэффициенты матрицы : BT.709

Аудио #1
Идентификатор : 2
Формат : AC-3
Формат/Информация : Audio Coding 3
Параметр Endianness формата : Big
Идентификатор кодека : A_AC3
Продолжительность : 1 ч. 55 м.
Вид битрейта : Постоянный
Битрейт : 192 Кбит/сек
Каналы : 2 канала
Расположение каналов : Front: L R
Частота : 48,0 КГц
Частота кадров : 31,250 кадров/сек (1536 SPF)
Битовая глубина : 16 бит
Метод сжатия : С потерями
Размер потока : 158 Мбайт (2%)
Заголовок : MVO, т/к Че
Язык : Russian
Default : Да
Forced : Нет

Аудио #2
Идентификатор : 3
Формат : AC-3
Формат/Информация : Audio Coding 3
Параметр Endianness формата : Big
Идентификатор кодека : A_AC3
Продолжительность : 1 ч. 55 м.
Вид битрейта : Постоянный
Битрейт : 192 Кбит/сек
Каналы : 2 канала
Расположение каналов : Front: L R
Частота : 48,0 КГц
Частота кадров : 31,250 кадров/сек (1536 SPF)
Битовая глубина : 16 бит
Метод сжатия : С потерями
Размер потока : 158 Мбайт (2%)
Заголовок : MVO, н/a
Язык : Russian
Default : Нет
Forced : Нет

Аудио #3
Идентификатор : 4
Формат : AC-3
Формат/Информация : Audio Coding 3
Параметр Endianness формата : Big
Идентификатор кодека : A_AC3
Продолжительность : 1 ч. 55 м.
Вид битрейта : Постоянный
Битрейт : 448 Кбит/сек
Каналы : 6 каналов
Расположение каналов : Front: L C R, Side: L R, LFE
Частота : 48,0 КГц
Частота кадров : 31,250 кадров/сек (1536 SPF)
Битовая глубина : 16 бит
Метод сжатия : С потерями
Размер потока : 369 Мбайт (4%)
Заголовок : AVO, А. Дольский
Язык : Russian
Default : Нет
Forced : Нет

Аудио #4
Идентификатор : 5
Формат : AC-3
Формат/Информация : Audio Coding 3
Параметр Endianness формата : Big
Идентификатор кодека : A_AC3
Продолжительность : 1 ч. 55 м.
Вид битрейта : Постоянный
Битрейт : 448 Кбит/сек
Каналы : 6 каналов
Расположение каналов : Front: L C R, Side: L R, LFE
Частота : 48,0 КГц
Частота кадров : 31,250 кадров/сек (1536 SPF)
Битовая глубина : 16 бит
Метод сжатия : С потерями
Размер потока : 369 Мбайт (4%)
Заголовок : AVO, А. Гаврилов
Язык : Russian
Default : Нет
Forced : Нет

Аудио #5
Идентификатор : 6
Формат : AC-3
Формат/Информация : Audio Coding 3
Параметр Endianness формата : Big
Идентификатор кодека : A_AC3
Продолжительность : 1 ч. 55 м.
Вид битрейта : Постоянный
Битрейт : 448 Кбит/сек
Каналы : 6 каналов
Расположение каналов : Front: L C R, Side: L R, LFE
Частота : 48,0 КГц
Частота кадров : 31,250 кадров/сек (1536 SPF)
Битовая глубина : 16 бит
Метод сжатия : С потерями
Размер потока : 369 Мбайт (4%)
Заголовок : AVO, Ю. Живов
Язык : Russian
Default : Нет
Forced : Нет

Аудио #6
Идентификатор : 7
Формат : AC-3
Формат/Информация : Audio Coding 3
Параметр Endianness формата : Big
Идентификатор кодека : A_AC3
Продолжительность : 1 ч. 55 м.
Вид битрейта : Постоянный
Битрейт : 448 Кбит/сек
Каналы : 6 каналов
Расположение каналов : Front: L C R, Side: L R, LFE
Частота : 48,0 КГц
Частота кадров : 31,250 кадров/сек (1536 SPF)
Битовая глубина : 16 бит
Метод сжатия : С потерями
Размер потока : 369 Мбайт (4%)
Заголовок : AVO, М. Яроцкий
Язык : Russian
Default : Нет
Forced : Нет

Аудио #7
Идентификатор : 8
Формат : AC-3
Формат/Информация : Audio Coding 3
Параметр Endianness формата : Big
Идентификатор кодека : A_AC3
Продолжительность : 1 ч. 55 м.
Вид битрейта : Постоянный
Битрейт : 192 Кбит/сек
Каналы : 2 канала
Расположение каналов : Front: L R
Частота : 48,0 КГц
Частота кадров : 31,250 кадров/сек (1536 SPF)
Битовая глубина : 16 бит
Метод сжатия : С потерями
Размер потока : 158 Мбайт (2%)
Заголовок : AVO, В. Махонько
Язык : Russian
Default : Нет
Forced : Нет

Аудио #8
Идентификатор : 9
Формат : AC-3
Формат/Информация : Audio Coding 3
Параметр Endianness формата : Big
Идентификатор кодека : A_AC3
Продолжительность : 1 ч. 55 м.
Вид битрейта : Постоянный
Битрейт : 192 Кбит/сек
Каналы : 2 канала
Расположение каналов : Front: L R
Частота : 48,0 КГц
Частота кадров : 31,250 кадров/сек (1536 SPF)
Битовая глубина : 16 бит
Метод сжатия : С потерями
Размер потока : 158 Мбайт (2%)
Заголовок : MVO, т/к Украина
Язык : Ukrainian
Default : Нет
Forced : Нет

Аудио #9
Идентификатор : 10
Формат : DTS
Формат/Информация : Digital Theater Systems
Режим : 16
Параметр Endianness формата : Big
Идентификатор кодека : A_DTS
Продолжительность : 1 ч. 55 м.
Вид битрейта : Постоянный
Битрейт : 1509 Кбит/сек
Каналы : 6 каналов
Расположение каналов : Front: L C R, Side: L R, LFE
Частота : 48,0 КГц
Частота кадров : 93,750 кадра/сек (512 SPF)
Битовая глубина : 16 бит
Метод сжатия : С потерями
Размер потока : 1,21 Гбайт (15%)
Заголовок : Оригинал
Язык : English
Default : Нет
Forced : Нет

Текст #1
Идентификатор : 11
Формат : UTF-8
Идентификатор кодека : S_TEXT/UTF8
Идентификатор кодека/Информация : UTF-8 Plain Text
Заголовок : Russian
Язык : Russian
Default : Да
Forced : Нет

Текст #2
Идентификатор : 12
Формат : UTF-8
Идентификатор кодека : S_TEXT/UTF8
Идентификатор кодека/Информация : UTF-8 Plain Text
Заголовок : Ukrainian
Язык : Ukrainian
Default : Нет
Forced : Нет

Текст #3
Идентификатор : 13
Формат : UTF-8
Идентификатор кодека : S_TEXT/UTF8
Идентификатор кодека/Информация : UTF-8 Plain Text
Заголовок : English
Язык : English
Default : Нет
Forced : Нет

Меню
00:00:00.000 : :Chapter 01
00:11:39.446 : :Chapter 02
00:20:50.414 : :Chapter 03
00:31:29.136 : :Chapter 04
00:41:40.289 : :Chapter 05
00:51:45.476 : :Chapter 06
01:02:03.802 : :Chapter 07
01:12:46.153 : :Chapter 08
01:22:44.960 : :Chapter 09
01:32:42.222 : :Chapter 10
01:44:10.077 : :Chapter 11
01:51:41.653 : :Chapter 12
01:55:13.405 : :Chapter 13
x264 [info]: frame I:1093 Avg QP:15.16 size: 103444
x264 [info]: frame P:36372 Avg QP:17.55 size: 53536
x264 [info]: frame B:128292 Avg QP:19.57 size: 24491


_________________
Проголосуй за трекер Открытый торрент трекер - RUS-MEDIA.ORG

Проголосуй Открытый торрент трекер - RUS-MEDIA.ORG



реклама партнёра


Вернуться к началу
 Профиль Отправить личное сообщение  
 
   Похожие торренты   Автор   Торрент   Размер 
В этой теме нет новых непрочитанных сообщений. Побег / The Getaway [боевик, триллер, драма, 1994] BDRip 1080p, Mvo

salma3

46 | 28

11.95 ГБ

В этой теме нет новых непрочитанных сообщений. Побег / The Getaway [боевик, триллер, драма, 1994] HDRip-AVC, Mvo

salma3

30 | 11

746.22 МБ

В этой теме нет новых непрочитанных сообщений. Побег / В бегах / The Getaway [боевик, триллер, драма, 1994] HDRip, Mvo [Полная версия]

salma3

245 | 70

1.45 ГБ

В этой теме нет новых непрочитанных сообщений. Побег / The Getaway [боевик, триллер, криминал, 1972] BDRip 720p, Mvo

salma3

19 | 9

7.95 ГБ

В этой теме нет новых непрочитанных сообщений. Побег / The Getaway [Боевик, триллер, криминал, 1972] Blu-Ray 1080p, Mvo

salma3

3 | 5

20.53 ГБ

В этой теме нет новых непрочитанных сообщений. Побег невозможен / No Escape [Фантастика, боевик, триллер, драма, 1994] HDTVRip-AVC, Mvo

salma3

79 | 16

746.12 МБ

В этой теме нет новых непрочитанных сообщений. Побег невозможен / Escape from absolom [Фантастика, боевик, триллер, драма, 1994] HDTVRip-AVC, Mvo+Avo+Sub

salma3

48 | 4

2.9 ГБ


Начать новую тему Ответить на тему  [ 1 сообщение ] 




Для Мосгорсуда, Роскомнадзора и рекламодателей:: mosgorsud-torrent[собачка]yandex.ru
cron