Торрент файл
скачать торрент магнет ссылка Добавлен: 15 ноя 2017, 12:22
Размер: 6.02 ГБ
Сидеров: 55
Личеров: 2
Статус: (salma3)
Автор

СообщениеДобавлено: 15 ноя 2017, 12:22 

Не в сети
Супермодератор
Аватара пользователя
Дата регистрации:
15 фев 2012, 16:44
Возраст: 29
Спасибо: 7322 / 2147
Сообщения: 73261
Год выхода: 1979
Жанр: боевик, триллер, криминал
Режиссер: Уолтер Хилл

В ролях: Майкл Бек, Джеймс Ремар, Дорси Райт, Брайан Тайлер, Дэвид Харрис, Tom McKitterick, Marcelino Sánchez, Terry Michos, Дебора Ван Волкенбор, Роджер Хилл, Дэвид Патрик Келли, Линн Тигпен, Джинни Ортиз,

О фильме: Шайка «Воины» из Кони-Айленда отправляется на грандиозную сходку уличных банд в Бронксе. На сходке какие-то подонки убивают уважаемого городского «авторитета» Сайруса и сваливают вину на «Воинов». Теперь против наших героев из Кони-Айленда подымаются все банды Нью-Йорка.
У «Воинов» есть лишь одна ночь для того, чтобы прорваться домой и отстоять свое честное имя!



Выпущено: США
Продолжительность: 01:33:59
Перевод: Двухголосный (НТВ), Авторский (Гаврилов Андрей), Авторский (Володарский Леонид)
Субтитры: Russian, English, English (SDH), French, Spanish.

Видео: 1280x720 (16:9); 7000 Kbps; 23,976 fps;
Аудио №1: Russian; Dolby Digital Audio / 5.1 / 48 kHz / 448 kbps; НТВ
Аудио №2: Russian; Dolby Digital Audio / 5.1 / 48 kHz / 448 kbps; Гаврилов
Аудио №3: Russian; Dolby Digital Audio / 5.1 / 48 kHz / 640 kbps; Володарский
Аудио №4: English; Dolby Digital Audio / 5.1 / 48 kHz / 640 kbps
Главы подписаны...

x264 [info]: frame I:1086 Avg QP:13.72 size:174768
x264 [info]: frame P:31825 Avg QP:17.00 size: 67810
x264 [info]: frame B:102305 Avg QP:18.69 size: 25269

Общее
Уникальный идентификатор : 194221839430653255660493817673120475026 (0x921DC401123F8B39883F80BE1A57E792)
Полное имя : E:Мои рипыВоины 1979_BDRip 720_KORSAR.mkv
Формат : Matroska
Версия формата : Version 2
Размер файла : 6,02 Гбайт
Продолжительность : 1 ч. 33 м.
Общий поток : 9176 Кбит/сек
Дата кодирования : UTC 2017-11-12 23:54:18
Программа кодирования : mkvmerge v5.8.0 ('No Sleep / Pillow') built on Sep 2 2012 15:37:04
Библиотека кодирования : libebml v1.2.3 + libmatroska v1.3.0

Видео
Идентификатор : 1
Формат : AVC
Формат/Информация : Advanced Video Codec
Профиль формата : High@L4.1
Настройки формата : CABAC / 9 Ref Frames
Параметр CABAC формата : Да
Параметр RefFrames формата : 9 кадров
Идентификатор кодека : V_MPEG4/ISO/AVC
Продолжительность : 1 ч. 33 м.
Битрейт : 7000 Кбит/сек
Ширина : 1280 пикселей
Высота : 720 пикселей
Соотношение сторон : 16:9
Режим частоты кадров : Постоянный
Частота кадров : 23,976 (24000/1001) кадра/сек
Цветовое пространство : YUV
Субдискретизация насыщенности : 4:2:0
Битовая глубина : 8 бит
Тип развёртки : Прогрессивная
Бит/(Пиксели*Кадры) : 0.317
Размер потока : 4,48 Гбайт (74%)
Библиотека кодирования : x264 core 152 r2851kMod ba24899
Настройки программы : cabac=1 / ref=9 / deblock=1:-2:-1 / analyse=0x3:0x113 / me=umh / subme=11 / psy=1 / fade_compensate=0.00 / psy_rd=1.05:0.10 / mixed_ref=1 / me_range=48 / chroma_me=1 / trellis=2 / 8x8dct=1 / cqm=0 / deadzone=21,11 / fast_pskip=0 / chroma_qp_offset=-3 / threads=12 / lookahead_threads=3 / sliced_threads=0 / nr=0 / decimate=0 / interlaced=0 / bluray_compat=0 / constrained_intra=0 / bframes=10 / b_pyramid=2 / b_adapt=2 / b_bias=0 / direct=3 / weightb=1 / open_gop=0 / weightp=2 / keyint=240 / keyint_min=23 / scenecut=40 / intra_refresh=0 / rc_lookahead=40 / rc=2pass / mbtree=0 / bitrate=7000 / ratetol=1.0 / qcomp=0.60 / qpmin=0 / qpmax=39 / qpstep=4 / cplxblur=20.0 / qblur=0.5 / vbv_maxrate=50000 / vbv_bufsize=62500 / nal_hrd=none / filler=0 / ip_ratio=1.40 / pb_ratio=1.30 / aq=2:1.00
Язык : English
Default : Да
Forced : Нет
Цветовой диапазон : Limited
Основные цвета : BT.709
Характеристики трансфера : BT.709
Коэффициенты матрицы : BT.709

Аудио #1
Идентификатор : 2
Формат : AC-3
Формат/Информация : Audio Coding 3
Параметр Endianness формата : Big
Идентификатор кодека : A_AC3
Продолжительность : 1 ч. 33 м.
Вид битрейта : Постоянный
Битрейт : 448 Кбит/сек
Каналы : 6 каналов
Расположение каналов : Front: L C R, Side: L R, LFE
Частота : 48,0 КГц
Частота кадров : 31,250 кадров/сек (1536 SPF)
Битовая глубина : 16 бит
Метод сжатия : С потерями
Размер потока : 301 Мбайт (5%)
Заголовок : AC3, 448 kbps | DVO (НТВ)
Язык : Russian

Default : Да
Forced : Нет

Аудио #2
Идентификатор : 3
Формат : AC-3
Формат/Информация : Audio Coding 3
Параметр Endianness формата : Big
Идентификатор кодека : A_AC3
Продолжительность : 1 ч. 33 м.
Вид битрейта : Постоянный
Битрейт : 448 Кбит/сек
Каналы : 6 каналов
Расположение каналов : Front: L C R, Side: L R, LFE
Частота : 48,0 КГц
Частота кадров : 31,250 кадров/сек (1536 SPF)
Битовая глубина : 16 бит
Метод сжатия : С потерями
Размер потока : 301 Мбайт (5%)
Заголовок : AC3, 448 kbps | AVO (А.Гаврилов)
Язык : Russian

Default : Нет
Forced : Нет

Аудио #3
Идентификатор : 4
Формат : AC-3
Формат/Информация : Audio Coding 3
Параметр Endianness формата : Big
Идентификатор кодека : A_AC3
Продолжительность : 1 ч. 33 м.
Вид битрейта : Постоянный
Битрейт : 640 Кбит/сек
Каналы : 6 каналов
Расположение каналов : Front: L C R, Side: L R, LFE
Частота : 48,0 КГц
Частота кадров : 31,250 кадров/сек (1536 SPF)
Битовая глубина : 16 бит
Метод сжатия : С потерями
Размер потока : 430 Мбайт (7%)
Заголовок : AC3, 640 kbps | AVO (Л. Володарский)
Язык : Russian

Default : Нет
Forced : Нет

Аудио #4
Идентификатор : 5
Формат : AC-3
Формат/Информация : Audio Coding 3
Параметр Endianness формата : Big
Идентификатор кодека : A_AC3
Продолжительность : 1 ч. 33 м.
Вид битрейта : Постоянный
Битрейт : 640 Кбит/сек
Каналы : 6 каналов
Расположение каналов : Front: L C R, Side: L R, LFE
Частота : 48,0 КГц
Частота кадров : 31,250 кадров/сек (1536 SPF)
Битовая глубина : 16 бит
Метод сжатия : С потерями
Размер потока : 430 Мбайт (7%)
Язык : English

Default : Нет
Forced : Нет

Текст #1
Идентификатор : 6
Формат : UTF-8
Идентификатор кодека : S_TEXT/UTF8
Идентификатор кодека/Информация : UTF-8 Plain Text
Заголовок : by ruzz
Язык : Russian
Default : Нет
Forced : Нет

Текст #2
Идентификатор : 7
Формат : UTF-8
Идентификатор кодека : S_TEXT/UTF8
Идентификатор кодека/Информация : UTF-8 Plain Text
Язык : English
Default : Нет
Forced : Нет

Меню
00:00:00.000 : en:1
00:08:54.409 : en:2
00:16:50.259 : en:3
00:21:59.026 : en:4
00:24:57.329 : en:5
00:31:28.220 : en:6
00:42:14.323 : en:7
00:45:48.996 : en:8
00:52:40.991 : en:9
00:59:57.052 : en:10
01:10:10.498 : en:11
01:18:34.335 : en:12
01:22:53.218 : en:13
01:28:23.632 : en:14





_________________
Проголосуй за трекер Открытый торрент трекер - RUS-MEDIA.ORG

Проголосуй Открытый торрент трекер - RUS-MEDIA.ORG


Вернуться к началу
 Профиль Отправить личное сообщение  
 
   Похожие торренты   Автор   Торрент   Размер 
В этой теме нет новых непрочитанных сообщений. Воины / The Warriors [боевик, триллер, криминал, 1979] DVDRip, Dvo

salma3

48 | 18

1.34 ГБ

В этой теме нет новых непрочитанных сообщений. Доблестные воины / Warriors of Virtue [Фантастический боевик, 1997] DVDRip, Avo

salma3

2 | 0

702.18 МБ

В этой теме нет новых непрочитанных сообщений. Воины дюн / Dune Warriors [фантастика, боевик, приключения, 1991] HDRip, Avo

salma3

43 | 7

1.47 ГБ

В этой теме нет новых непрочитанных сообщений. Кошмар на улице Вязов 3: Воины сна / A Nightmare on Elm Street 3: Dream Warriors [ужасы, 1987] BDRip-HEVC 1080p, Mvo

salma3

0 | 0

6.94 ГБ

В этой теме нет новых непрочитанных сообщений. Воины дракона / Dragon Warriors (Маклейн Нельсон, Стивен Шимек) [2015, фэнтези, боевик, комедия, SATRip] mvo

Nickolas3435

225 | 20

1.45 ГБ

В этой теме нет новых непрочитанных сообщений. Правосудие для всех / ...And Justice for All [триллер, драма, криминал, 1979] BDRip 720p, Dub

salma3

7 | 2

9.03 ГБ

В этой теме нет новых непрочитанных сообщений. Воины Терра / Warriors of Terra [ужасы, фантастика, 2006] DVDRip,Dvo

salma3

77 | 3

1.33 ГБ


Начать новую тему Ответить на тему  [ 1 сообщение ] 




Для Мосгорсуда, Роскомнадзора и рекламодателей:: mosgorsud-torrent[собачка]yandex.ru
cron