Торрент файл
скачать торрент магнет ссылка Добавлен: 15 ноя 2017, 12:15
Размер: 2.41 ГБ
Сидеров: 42
Личеров: 4
Статус: (salma3)
Автор

СообщениеДобавлено: 15 ноя 2017, 12:15 

Не в сети
Супермодератор
Аватара пользователя
Дата регистрации:
15 фев 2012, 16:44
Возраст: 29
Спасибо: 7379 / 2147
Сообщения: 76077
Год выхода: 2017
Жанр: Ужасы, триллер, драма
Режиссер: Адам Рипп

В ролях: Люка Ориел, Элисон Фернандез, Маркос А. Ферраез, Луна Майя, Оливия Негрон, Джаспер Полиш, Рик Раванелло и другие

О фильме:
15-летний Алехандро Дурэн стремится стать одним из католических священников. Но когда Алекс обнаруживает таинственную коробку, то невольно освобождает злой дух. Алекс должен найти способ победить этого древнего демона, мучавшего людей с самого начала времён, пока он не уничтожил его и его близких. Шёпот дъявола - фильм ужасов об одержимости, но в его основе лежит психологический триллер о подавленных воспоминаниях.



Страна: США, MD Media, Vega
Продолжительность: 01:25:54
Перевод: Любительский (двухголосый закадровый)[RecentFilms]

Файл
Кодек: MPEG-4 AVC/H.264
Качество: WEBRip 720p
Видео: 1280x530, 23,976 fps, ~3822 Kbps, 0.235 bit/pixel
Аудио rus: AC3, 48 kHz, 2 ch, 192 Kbps

Реклама: присутствует

Семпл

General
Unique ID : 221265752002313459618397988720683190354 (0xA6763BD6B407F511B5FD8D63EA370852)
Complete name : F:FilmsDevils.Whisper.2017.WEBRip.720p.RecentFilmsDevils.Whisper.2017.WEBRip.720p.RecentFilms.mkv
Format : Matroska
Format version : Version 4 / Version 2
File size : 2.41 GiB
Duration : 1h 25mn
Overall bit rate : 4 016 Kbps
Encoded date : UTC 2017-11-14 20:09:47
Writing application : mkvmerge v7.8.0 ('River Man') 64bit built on Mar 27 2015 16:31:37
Writing library : libebml v1.3.1 + libmatroska v1.4.2

Video
ID : 1
Format : AVC
Format/Info : Advanced Video Codec
Format profile : Main@L3.2
Format settings, CABAC : Yes
Format settings, ReFrames : 3 frames
Codec ID : V_MPEG4/ISO/AVC
Duration : 1h 25mn
Bit rate : 3 822 Kbps
Width : 1 280 pixels
Height : 530 pixels
Display aspect ratio : 2.40:1
Frame rate mode : Constant
Frame rate : 23.976 (24000/1001) fps
Standard : NTSC
Color space : YUV
Chroma subsampling : 4:2:0
Bit depth : 8 bits
Scan type : Progressive
Bits/(Pixel*Frame) : 0.235
Stream size : 2.29 GiB (95%)
Language : English
Default : Yes
Forced : No
Color range : Limited
Color primaries : BT.601 NTSC
Transfer characteristics : BT.601
Matrix coefficients : BT.601

Audio
ID : 2
Format : AC-3
Format/Info : Audio Coding 3
Mode extension : CM (complete main)
Format settings, Endianness : Big
Codec ID : A_AC3
Duration : 1h 25mn
Bit rate mode : Constant
Bit rate : 192 Kbps
Channel(s) : 2 channels
Channel positions : Front: L R
Sampling rate : 48.0 KHz
Frame rate : 31.250 fps (1536 spf)
Compression mode : Lossy
Stream size : 118 MiB (5%)
Default : Yes
Forced : No



Релиз от: RecentFilms


_________________
Проголосуй за трекер Открытый торрент трекер - RUS-MEDIA.ORG

Проголосуй Открытый торрент трекер - RUS-MEDIA.ORG


Вернуться к началу
 Профиль Отправить личное сообщение  
 
   Похожие торренты   Автор   Торрент   Размер 
В этой теме нет новых непрочитанных сообщений. Шёпот дьявола / Devil's Whisper [Ужасы, триллер, драма, 2017] WEBRip, Dvo

salma3

39 | 4

1.17 ГБ

В этой теме нет новых непрочитанных сообщений. Дьявольский шепот / Devil's Whisper [ужасы, триллер, драма, 2017] WEBDLRip, Mvo

salma3

50 | 13

1.37 ГБ

В этой теме нет новых непрочитанных сообщений. Жертва дьявола / Devil's Prey [Ужасы, триллер, 2001] DVDRip-AVC, Mvo

salma3

0 | 0

746.72 МБ

В этой теме нет новых непрочитанных сообщений. Дочь дьявола / To the Devil a Daughter [ужасы, триллер, 1976] BDRip, Avo

salma3

0 | 0

1.45 ГБ

В этой теме нет новых непрочитанных сообщений. Пес дьявола: Гончая ада / Devil Dog: The Hound of Hell [ужасы, триллер, 1978] DVDRip, Avo

salma3

60 | 33

1.46 ГБ

В этой теме нет новых непрочитанных сообщений. Собственность дьявола / The Devil's Own [Боевик, триллер, драма, криминал, 1997] BDRemux 1080p, dub

salma3

0 | 0

29.56 ГБ

В этой теме нет новых непрочитанных сообщений. Во Власти Дьявола / Devil's Domain [ужасы, 2016] WEB-DLRip, Mvo

salma3

215 | 66

1.37 ГБ


Начать новую тему Ответить на тему  [ 1 сообщение ] 




Для Мосгорсуда, Роскомнадзора и рекламодателей:: mosgorsud-torrent[собачка]yandex.ru
cron