Торрент файл
скачать торрент магнет ссылка Добавлен: 12 ноя 2017, 13:26
Размер: 3.92 ГБ
Сидеров: 9
Личеров: 21
Статус: (salma3)
Автор

СообщениеДобавлено: 12 ноя 2017, 13:26 

Не в сети
Супермодератор
Аватара пользователя
Дата регистрации:
15 фев 2012, 16:44
Возраст: 28
Спасибо: 6925 / 2147
Сообщения: 52897
Год выхода: 1998
Жанр: Боевик, криминал
Режиссер: Ральф Хемекер

В ролях: Майкл Бин, Пак Чун-хун, Кэри-Хироюки Тагава, Дон Старк, Байрон Манн, Бен Рэтнер, Лорена Гэйл, Хиро Канагава, Брэд Лори, Дин Чоу, Крис Франко, Джеймс Крешенцо, Роджер Р. Кросс, Кеван Охтци, Уоррен Такэути, Фульвио Чечере, Роб Дапросида, Майкл Хирано, Юка Кобаяси, Надя Капоне, Лерой Шульц, Джим Торберн

О фильме:
Нью-Йоркскому полицейскому Тони Люке поручают дело об убийстве влиятельного бизнесмена Нода, одного из заправил Якудзы. Во время расследования к нему присоединяется коллега из Сеула, подозревающий, что эта смерть — дело рук жестокого убийцы Куро-Най. Этот беспощадный мастер боевых исскуств принадлежит к криминальному синдикату, который подчиняет себе другие преступные группировки, убивая их лидеров. Компаньоны расставляют ловушку, не предполагая, что их имена стоят в списке следующими. Начинается смертельная игра, когда каждый считает себя охотником и каждый может оказаться жертвой.



Страна: Канада, США
Продолжительность: 01:35:17
Перевод: Профессиональный (двухголосый, закадровый) [НТВ+], профессиональный (многоголосый, закадровый) [ТВ3], украинский профессиональный (многоголосый, закадровый) [AMC], украинский профессиональный (двухголосый, закадровый) [2+2]

Спасибо slavik_v_z за дорожку с переводом AMC
Спасибо Neytreenor, POMEO за дорожку с переводом 2+2

Файл
Кодек: H264
Качество: WEB-DL 1080p
Видео: MPEG-4 AVC, 4997 Кбит/с, 1918x1032, 23.976 кадр/с
Звук:
Аудио#1: Russian AC3, 48.0 khz, 2 ch, 192 kbps - DVO, [НТВ+]
Аудио#2: Russian AC3, 48.0 khz, 2 ch, 192 kbps - MVO, [ТВ3]
Аудио#3: Ukrainian AC3, 48.0 khz, 2 ch, 192 kbps - MVO, [AMC]
Аудио#4: Ukrainian AC3, 48.0 khz, 2 ch, 192 kbps - DVO, [2+2]
Аудио#5: English AAC, 48.0 khz, 2 ch, 127 kbps - Оригинал (английский)

General
Unique ID : 213867734937543925017265073638804944993 (0xA0E56D6FAFB624509F219CBC9D0DF861)
Complete name : I:American.Dragons.1998.WEB-DL.1080p.H264.2xRus.2xUkr.Eng.mkv
Format : Matroska
Format version : Version 4 / Version 2
File size : 3.92 GiB
Duration : 1 h 35 min
Overall bit rate : 5 896 kb/s
Encoded date : UTC 2017-11-11 16:16:57
Writing application : mkvmerge v8.3.0 ('Over the Horizon') 32bit
Writing library : libebml v1.3.1 + libmatroska v1.4.2
Attachments : poster_rus.jpg

Video
ID : 1
Format : AVC
Format/Info : Advanced Video Codec
Format profile : High@L4
Format settings, CABAC : Yes
Format settings, ReFrames : 4 frames
Codec ID : V_MPEG4/ISO/AVC
Duration : 1 h 35 min
Bit rate : 4 997 kb/s
Width : 1 918 pixels
Height : 1 032 pixels
Display aspect ratio : 1.85:1
Frame rate mode : Constant
Frame rate : 23.976 (23976/1000) FPS
Color space : YUV
Chroma subsampling : 4:2:0
Bit depth : 8 bits
Scan type : Progressive
Bits/(Pixel*Frame) : 0.105
Stream size : 3.33 GiB (85%)
Language : English
Default : Yes
Forced : No
Color range : Limited
Color primaries : BT.709
Transfer characteristics : BT.709
Matrix coefficients : BT.709

Audio #1
ID : 2
Format : AC-3
Format/Info : Audio Coding 3
Format settings, Endianness : Big
Codec ID : A_AC3
Duration : 1 h 35 min
Bit rate mode : Constant
Bit rate : 192 kb/s
Channel(s) : 2 channels
Channel positions : Front: L R
Sampling rate : 48.0 kHz
Frame rate : 31.250 FPS (1536 spf)
Bit depth : 16 bits
Compression mode : Lossy
Delay relative to video : -42 ms
Stream size : 131 MiB (3%)
Title : Профессиональный (двухголосый закадровый) НТВ+
Language : Russian
Service kind : Complete Main
Default : Yes
Forced : No

Audio #2
ID : 3
Format : AC-3
Format/Info : Audio Coding 3
Format settings, Endianness : Big
Codec ID : A_AC3
Duration : 1 h 35 min
Bit rate mode : Constant
Bit rate : 192 kb/s
Channel(s) : 2 channels
Channel positions : Front: L R
Sampling rate : 48.0 kHz
Frame rate : 31.250 FPS (1536 spf)
Bit depth : 16 bits
Compression mode : Lossy
Delay relative to video : -42 ms
Stream size : 131 MiB (3%)
Title : Профессиональный (многоголосый закадровый) ТВ3
Language : Russian
Service kind : Complete Main
Default : No
Forced : No

Audio #3
ID : 4
Format : AC-3
Format/Info : Audio Coding 3
Format settings, Endianness : Big
Codec ID : A_AC3
Duration : 1 h 35 min
Bit rate mode : Constant
Bit rate : 192 kb/s
Channel(s) : 2 channels
Channel positions : Front: L R
Sampling rate : 48.0 kHz
Frame rate : 31.250 FPS (1536 spf)
Bit depth : 16 bits
Compression mode : Lossy
Delay relative to video : -42 ms
Stream size : 131 MiB (3%)
Title : Профессиональный (многоголосый закадровый) AMC
Language : Ukrainian
Service kind : Complete Main
Default : No
Forced : No

Audio #4
ID : 5
Format : AC-3
Format/Info : Audio Coding 3
Format settings, Endianness : Big
Codec ID : A_AC3
Duration : 1 h 35 min
Bit rate mode : Constant
Bit rate : 192 kb/s
Channel(s) : 2 channels
Channel positions : Front: L R
Sampling rate : 48.0 kHz
Frame rate : 31.250 FPS (1536 spf)
Bit depth : 16 bits
Compression mode : Lossy
Delay relative to video : -42 ms
Stream size : 131 MiB (3%)
Title : Профессиональный (двухголосый закадровый) 2+2
Language : Ukrainian
Service kind : Complete Main
Default : No
Forced : No

Audio #5
ID : 6
Format : AAC
Format/Info : Advanced Audio Codec
Format profile : LC
Codec ID : A_AAC
Duration : 1 h 35 min
Bit rate : 127 kb/s
Channel(s) : 2 channels
Channel positions : Front: L R
Sampling rate : 48.0 kHz
Frame rate : 46.875 FPS (1024 spf)
Compression mode : Lossy
Delay relative to video : -42 ms
Stream size : 86.7 MiB (2%)
Title : Original
Language : English
Default : No
Forced : No

Menu
00:00:00.000 : en:Chapter 1
00:08:28.000 : en:Chapter 2
00:15:57.000 : en:Chapter 3
00:24:10.000 : en:Chapter 4
00:32:01.000 : en:Chapter 5
00:40:33.000 : en:Chapter 6
00:48:15.000 : en:Chapter 7
00:55:41.000 : en:Chapter 8
01:04:01.000 : en:Chapter 9
01:11:24.000 : en:Chapter 10
01:18:47.000 : en:Chapter 11
01:27:10.000 : en:Chapter 12
01:31:05.000 : en:Chapter 13



_________________
Проголосуй за трекер Открытый торрент трекер - RUS-MEDIA.ORG

Проголосуй Открытый торрент трекер - RUS-MEDIA.ORG



реклама партнёра


Вернуться к началу
 Профиль Отправить личное сообщение  
 
   Похожие торренты   Автор   Торрент   Размер 
В этой теме нет новых непрочитанных сообщений. Драконы Нью-Йорка / Revenge of the Green Dragons (Вэй Кеунг Лау, Эндрю Лу) [Боевик, драма, криминал, 2014] НDRip, dub [Чистый звук]

Dracon

5534 | 265

1.37 ГБ

В этой теме нет новых непрочитанных сообщений. Американские тигры / American Tigers [боевик, 1996] DVDRip, Avo

salma3

65 | 4

1.46 ГБ

В этой теме нет новых непрочитанных сообщений. Американские герои / American Outlaws [боевик, вестерн, 2001] WEB-DRip-AVC, Dub

salma3

0 | 0

2.18 ГБ

В этой теме нет новых непрочитанных сообщений. Американские герои / American Outlaws [боевик, вестерн, 2001] WEB-DLRip, Mvo

salma3

164 | 48

1.45 ГБ

В этой теме нет новых непрочитанных сообщений. Американские герои / American Outlaws [боевик, вестерн, 2001] WEB-DL 720p, Dub

salma3

115 | 49

3.21 ГБ

В этой теме нет новых непрочитанных сообщений. Драконы: Гонки по краю / Dragons: Race to the Edge [S03] (2015-2016) WEBRip 720p | Невафильм

marya111

133 | 70

15.17 ГБ

В этой теме нет новых непрочитанных сообщений. Американские мечты 17 / American Daydreams 17 (2016) WEBRip

Dievas

41 | 11

2.73 ГБ


Начать новую тему Ответить на тему  [ 1 сообщение ] 




Для Мосгорсуда, Роскомнадзора и рекламодателей:: mosgorsud-torrent[собачка]yandex.ru
cron