Торрент файл
скачать торрент магнет ссылка Добавлен: 11 ноя 2017, 16:39
Размер: 25.3 ГБ
Сидеров: 18
Личеров: 19
Статус: (salma3)
Автор

СообщениеДобавлено: 11 ноя 2017, 16:39 

Не в сети
Супермодератор
Аватара пользователя
Дата регистрации:
15 фев 2012, 16:44
Возраст: 28
Спасибо: 7163 / 2147
Сообщения: 61819
Год выхода: 2010
Жанр: Боевик, приключения, военный
Режиссер: Нил Маршалл

В ролях: Майкл Фассбендер, Ольга Куриленко, Доминик Уэст, Джей Джей Филд, Андреас Висневски, Дэйв Леджено, Аксель Кэролин, Даффер Лабидин, Ли Росс, Дэвид Моррисси, Саймон Чадвик, Ульрих Томсен,

О фильме:
Действие разворачивается в 117 году нашей эры. Главный герой — Квинтус Диас — единственный человек, уцелевший после налёта пиктов на пограничную римскую крепость. Вместе с легендарным Девятым легионом он отправляется на север, чтобы стереть с лица земли пиктов и уничтожить их предводителя, Горлакона.



Страна: Франция, Великобритания
Продолжительность: 01:37:29
Перевод: Дублированный, авторский, любительский одноголосый

Файл
Кодек: MPEG-4 AVC
Качество: BDRemux 1080p
Видео: 27997 Кбит/с, 1920x1080, 23.976 кадр/с
Аудио 1: русский DTS-HD MA 7.1, 48 kHz, 2717 kbps avg (DTS Core: 5.1 / 48 kHz / 1509 kbps) - Дубляж
Аудио 2: русский (DTS, 6 ch, 48 kHz, 1 510 Kbps) - Дубляж
Аудио 3: английский (DTS, 6 ch, 48 kHz, 1 510 Kbps) - Оригинал
Аудио 4: русский (DTS, 6 ch, 48 kHz, 1 510 Kbps) - Авторский (Ю. Немахов)
Аудио 5: русский (AC3, 6 ch, 48 kHz, 384 Kbps) - Авторский (В. Королев)
Аудио 6: русский (DTS, 6 ch, 48 kHz, 1 510 Kbps) - Любительский одноголосый (zamez)
Субтитры: Русские, английские
Главы: есть


Общее
Уникальный идентификатор : 231414670931388870491177766666987869046 (0xAE18D82CAD7F92C3BC7FE9335B439376)
Полное имя : D:\РЕМУКС!!!!!\НННН\Центурион.BDRemux ..mkv
Формат : Matroska
Версия формата : Version 4 / Version 2
Размер файла : 25,3 Гбайт
Продолжительность : 1 ч. 37 м.
Режим общего битрейта : Переменный
Общий поток : 37,1 Мбит/сек
Название фильма : Центурион.BDRemux
Дата кодирования : UTC 2015-10-28 09:22:04
Программа кодирования : mkvmerge v6.1.0 ('Old Devil') built on Mar 4 2013 09:10:42
Библиотека кодирования : libebml v1.3.0 + libmatroska v1.4.0

Видео
Идентификатор : 1
Формат : AVC
Формат/Информация : Advanced Video Codec
Профиль формата : High@L4.1
Параметр CABAC формата : Да
Параметр RefFrames формата : 4 кадра
Идентификатор кодека : V_MPEG4/ISO/AVC
Продолжительность : 1 ч. 37 м.
Вид битрейта : Переменный
Максимальный битрейт : 39,0 Мбит/сек
Ширина : 1920 пикселей
Высота : 1080 пикселей
Соотношение сторон : 16:9
Режим частоты кадров : Постоянный
Частота кадров : 23,976 (24000/1001) кадра/сек
Стандарт вещания : NTSC
Цветовое пространство : YUV
Субдискретизация насыщенности : 4:2:0
Битовая глубина : 8 бит
Тип развёртки : Прогрессивная
Заголовок : MPEG-4 AVC Video 27997 kbps 1080p / 23,976 fps
Default : Да
Forced : Нет
Цветовой диапазон : Limited
Основные цвета : BT.709
Характеристики трансфера : BT.709
Коэффициенты матрицы : BT.709

Аудио #1
Идентификатор : 2
Формат : DTS
Формат/Информация : Digital Theater Systems
Профиль формата : MA / Core
Режим : 16
Параметр Endianness формата : Big
Идентификатор кодека : A_DTS
Продолжительность : 1 ч. 37 м.
Вид битрейта : Переменный / Постоянный
Битрейт : Неизвестно / 1509 Кбит/сек
Каналы : 8 каналов / 6 каналов
Расположение каналов : Front: L C R, Side: L R, Back: L R, LFE / Front: L C R, Side: L R, LFE
Частота : 48,0 КГц
Частота кадров : 93,750 кадра/сек (512 SPF)
Битовая глубина : 16 бит
Метод сжатия : Без потерь / Lossy
Заголовок : DTS-HD Master Audio Russian 2717 kbps 7.1 / 48 kHz / 2717 kbps
Язык : Russian
Default : Да
Forced : Нет

Аудио #2
Идентификатор : 3
Формат : DTS
Формат/Информация : Digital Theater Systems
Режим : 16
Параметр Endianness формата : Big
Идентификатор кодека : A_DTS
Продолжительность : 1 ч. 37 м.
Вид битрейта : Постоянный
Битрейт : 1509 Кбит/сек
Каналы : 6 каналов
Расположение каналов : Front: L C R, Side: L R, LFE
Частота : 48,0 КГц
Частота кадров : 93,750 кадра/сек (512 SPF)
Битовая глубина : 16 бит
Метод сжатия : С потерями
Размер потока : 1,03 Гбайт (4%)
Заголовок : (DTS, 1 510 Kbps) дубляж
Язык : Russian
Default : Нет
Forced : Нет

Аудио #3
Идентификатор : 4
Формат : DTS
Формат/Информация : Digital Theater Systems
Режим : 16
Параметр Endianness формата : Big
Идентификатор кодека : A_DTS
Продолжительность : 1 ч. 37 м.
Вид битрейта : Постоянный
Битрейт : 1509 Кбит/сек
Каналы : 6 каналов
Расположение каналов : Front: L C R, Side: L R, LFE
Частота : 48,0 КГц
Частота кадров : 93,750 кадра/сек (512 SPF)
Битовая глубина : 16 бит
Метод сжатия : С потерями
Размер потока : 1,03 Гбайт (4%)
Заголовок : (DTS, 1 510 Kbps) оригинал
Язык : English
Default : Нет
Forced : Нет

Аудио #4
Идентификатор : 5
Формат : DTS
Формат/Информация : Digital Theater Systems
Режим : 16
Параметр Endianness формата : Big
Идентификатор кодека : A_DTS
Продолжительность : 1 ч. 37 м.
Вид битрейта : Постоянный
Битрейт : 1509 Кбит/сек
Каналы : 6 каналов
Расположение каналов : Front: L C R, Side: L R, LFE
Частота : 48,0 КГц
Частота кадров : 93,750 кадра/сек (512 SPF)
Битовая глубина : 16 бит
Метод сжатия : С потерями
Размер потока : 1,03 Гбайт (4%)
Заголовок : (DTS, 1 510 Kbps) Ю. Немахов
Язык : Russian
Default : Нет
Forced : Нет

Аудио #5
Идентификатор : 6
Формат : AC-3
Формат/Информация : Audio Coding 3
Параметр Endianness формата : Big
Идентификатор кодека : A_AC3
Продолжительность : 1 ч. 37 м.
Вид битрейта : Постоянный
Битрейт : 384 Кбит/сек
Каналы : 6 каналов
Расположение каналов : Front: L C R, Side: L R, LFE
Частота : 48,0 КГц
Частота кадров : 31,250 кадров/сек (1536 SPF)
Битовая глубина : 16 бит
Метод сжатия : С потерями
Размер потока : 268 Мбайт (1%)
Заголовок : (AC3, 384 Kbps) В. Королев
Язык : Russian
ServiceKind/String : Complete Main
Default : Нет
Forced : Нет

Аудио #6
Идентификатор : 7
Формат : DTS
Формат/Информация : Digital Theater Systems
Режим : 16
Параметр Endianness формата : Big
Идентификатор кодека : A_DTS
Продолжительность : 1 ч. 37 м.
Вид битрейта : Постоянный
Битрейт : 1510 Кбит/сек
Каналы : 6 каналов
Расположение каналов : Front: L C R, Side: L R, LFE
Частота : 48,0 КГц
Частота кадров : 93,750 кадра/сек (512 SPF)
Битовая глубина : 24 бит
Метод сжатия : С потерями
Размер потока : 1,03 Гбайт (4%)
Заголовок : (DTS, 1 536 Kbps) VO.zamez
Язык : Russian
Default : Нет
Forced : Нет

Текст #1
Идентификатор : 8
Формат : UTF-8
Идентификатор кодека : S_TEXT/UTF8
Идентификатор кодека/Информация : UTF-8 Plain Text
Заголовок : Русские
Язык : Russian
Default : Нет
Forced : Нет

Текст #2
Идентификатор : 9
Формат : UTF-8
Идентификатор кодека : S_TEXT/UTF8
Идентификатор кодека/Информация : UTF-8 Plain Text
Заголовок : Английские
Язык : English
Default : Нет
Forced : Нет

Меню
00:00:00.000 : :Chapter 01
00:06:44.487 : :Chapter 02
00:11:42.576 : :Chapter 03
00:16:02.419 : :Chapter 04
00:21:31.999 : :Chapter 05
00:29:06.911 : :Chapter 06
00:36:13.880 : :Chapter 07
00:40:31.387 : :Chapter 08
00:46:14.855 : :Chapter 09
00:52:02.536 : :Chapter 10
00:58:23.291 : :Chapter 11
01:03:49.575 : :Chapter 12
01:10:12.333 : :Chapter 13
01:17:56.630 : :Chapter 14
01:26:30.018 : :Chapter 15
01:33:18.926 : :Chapter 16
01:37:29.677 : :Chapter 17



_________________
Проголосуй за трекер Открытый торрент трекер - RUS-MEDIA.ORG

Проголосуй Открытый торрент трекер - RUS-MEDIA.ORG


Вернуться к началу
 Профиль Отправить личное сообщение  
 
   Похожие торренты   Автор   Торрент   Размер 
В этой теме нет новых непрочитанных сообщений. Последний легион / The Last Legion [Фэнтези, боевик, приключения, военный, 2007] BDRemux 1080p, Dub+Sub

salma3

49 | 13

14.33 ГБ

В этой теме нет новых непрочитанных сообщений. Закричи на дьявола / Shout at the Devil [Боевик, приключения, военный, 1976] BDRemux 1080p, Mvo [Full version]

salma3

2 | 17

24.68 ГБ

В этой теме нет новых непрочитанных сообщений. На игре 2: Новый уровень [Боевик, приключения, 2010] BDRemux 1080p

salma3

17 | 24

16.82 ГБ

В этой теме нет новых непрочитанных сообщений. Робин Гуд / Robin Hood [Боевик, драма, приключения, 2010] BDRemux 1080p, Dub [Directors Cut]

salma3

57 | 53

38.64 ГБ

В этой теме нет новых непрочитанных сообщений. Мидуэй / Midway [Военный, история, боевик, 1976] BDRemux 1080p, Mvo

salma3

31 | 21

31.45 ГБ

В этой теме нет новых непрочитанных сообщений. Ярость / Fury [Боевик, военный, 2014] BDRemux 1080p, Dub [Лицензия]

salma3

37 | 9

27.8 ГБ

В этой теме нет новых непрочитанных сообщений. МакБэйн / McBain [боевик, драма, военный, 1991] BDRemux 1080p, Avo

salma3

0 | 3

21.98 ГБ


Начать новую тему Ответить на тему  [ 1 сообщение ] 




Для Мосгорсуда, Роскомнадзора и рекламодателей:: mosgorsud-torrent[собачка]yandex.ru
cron