COVID-19 - Последняя информация о коронавирусе на сайте Минздрава




Торрент файл
скачать торрент магнет ссылка Добавлен: 11 ноя 2017, 16:39
Размер: 4.03 ГБ
Сидеров: 44
Личеров: 5
Статус: (salma3)
Автор

СообщениеДобавлено: 11 ноя 2017, 16:39 

Не в сети
Супермодератор
Аватара пользователя
Дата регистрации:
15 фев 2012, 16:44
Возраст: 30
Спасибо: 8262 / 2148
Сообщения: 96145
Год выхода: 2010
Жанр: Триллер, драма, мелодрама
Режиссер: Пол Хаггис

В ролях: Расселл Кроу, Элизабет Бэнкс, Джейсон Бех, Аиша Хиндс, Оливия Уайлд, Дэниэл Стерн, Хелен Кэри, Брайан Деннехи, Лиам Нисон, Ленни Джеймс, Джонатан Такер, RZA, Джеймс Рэнсон, Майкл Бьюи, Моран Атиас, Тай Симпкинс

О фильме:
Жизнь Джона казалась идеальной, пока его красавицу жену не арестовали по подозрению в убийстве. Пока Лара сидит в тюрьме, Джон один воспитывает сына и пытается всеми способами доказать ее невиновность. Но когда законные способы освободить любимую исчерпаны, единственное, что ему остается — разработать изощренный план побега. Джон готов рискнуть всем ради нее… Но что если она действительно виновна?...



Страна: США, Франция
Студия: Fide'lite' Films, Hwy61, Lionsgate
Продолжительность: 02:13:08
Перевод: Профессиональный дублированный (лицензия)

Файл
Кодек: HEVC x265 10bit
Качество: BDRip-HEVC 1080p
Видео: 1920x816, 23.976 кадр/сек, 3560 Кбит/сек, (Main 10@L5.1@High) 10bit
Звук:
Аудио1: Русская, AC3 384 Кбит/сек, 6 канала(ов),16bit 48,0 КГц
Аудио2: English, AC3 384 Кбит/сек, 6 канала(ов),16bit 48,0 КГц
Субтитры: Русские (форсированные, полные), English

General
Unique ID : 235420387587792066149819920589687723424 (0xB11C5140F5B508D9AE72290B46D195A0)
Format : Matroska
Format version : Version 4 / Version 2
File size : 4.03 GiB
Duration : 2 h 13 min
Overall bit rate : 4 329 kb/s
Movie name : rip_by_Cthulhu
Encoded date : UTC 2017-11-10 12:58:45
Writing application : mkvmerge v13.0.0 ('The Juggler') 64bit
Writing library : libebml v1.3.4 + libmatroska v1.4.5
Cover : Yes
Attachments : cover.jpg

Video
ID : 1
Format : HEVC
Format/Info : High Efficiency Video Coding
Format profile : Main 10@L5.1@High
Codec ID : V_MPEGH/ISO/HEVC
Duration : 2 h 13 min
Bit rate : 3 560 kb/s
Width : 1 920 pixels
Height : 816 pixels
Display aspect ratio : 2.35:1
Frame rate mode : Constant
Frame rate : 23.976 (24000/1001) FPS
Color space : YUV
Chroma subsampling : 4:2:0
Bit depth : 10 bits
Bits/(Pixel*Frame) : 0.095
Stream size : 3.31 GiB (82%)
Writing library : x265 2.5+31-df2de6ea407d:[Windows][GCC 7.1.0][64 bit] 10bit
Encoding settings : cpuid=1050111 / frame-threads=5 / numa-pools=4 / wpp / no-pmode / no-pme / no-psnr / no-ssim / log-level=3 / input-csp=1 / input-res=1920x816 / interlace=0 / total-frames=0 / level-idc=51 / high-tier=1 / uhd-bd=0 / ref=4 / no-allow-non-conformance / no-repeat-headers / annexb / no-aud / no-hrd / info / hash=0 / no-temporal-layers / open-gop / min-keyint=3 / keyint=24 / bframes=10 / b-adapt=2 / b-pyramid / bframe-bias=0 / rc-lookahead=40 / lookahead-slices=5 / scenecut=40 / no-intra-refresh / ctu=64 / min-cu-size=8 / no-rect / no-amp / max-tu-size=32 / tu-inter-depth=3 / tu-intra-depth=3 / limit-tu=0 / rdoq-level=0 / dynamic-rd=0.00 / no-ssim-rd / signhide / no-tskip / nr-intra=0 / nr-inter=0 / no-constrained-intra / strong-intra-smoothing / max-merge=3 / limit-refs=3 / no-limit-modes / me=2 / subme=6 / merange=32 / temporal-mvp / weightp / weightb / no-analyze-src-pics / deblock=-2:-2 / no-sao / no-sao-non-deblock / rd=3 / no-early-skip / rskip / no-fast-intra / no-tskip-fast / no-cu-lossless / no-b-intra / no-splitrd-skip / rdpenalty=0 / psy-rd=0.30 / psy-rdoq=0.00 / no-rd-refine / analysis-reuse-mode=0 / no-lossless / cbqpoffs=0 / crqpoffs=0 / rc=crf / crf=20.0 / qcomp=0.60 / qpstep=4 / stats-write=0 / stats-read=0 / vbv-maxrate=50000 / vbv-bufsize=35714 / vbv-init=0.9 / crf-max=30.0 / crf-min=0.0 / ipratio=1.40 / pbratio=1.30 / aq-mode=1 / aq-strength=1.00 / cutree / zone-count=0 / no-strict-cbr / qg-size=32 / no-rc-grain / qpmax=69 / qpmin=0 / no-const-vbv / sar=1 / overscan=0 / videoformat=5 / range=0 / colorprim=1 / transfer=1 / colormatrix=1 / chromaloc=0 / display-window=0 / max-cll=0,0 / min-luma=0 / max-luma=1023 / log2-max-poc-lsb=8 / vui-timing-info / vui-hrd-info / slices=1 / opt-qp-pps / opt-ref-list-length-pps / no-multi-pass-opt-rps / scenecut-bias=0.05 / no-opt-cu-delta-qp / no-aq-motion / no-hdr / no-hdr-opt / no-dhdr10-opt / analysis-reuse-level=5 / scale-factor=0 / refine-intra=0 / refine-inter=0 / refine-mv=0 / no-limit-sao / ctu-info=0
Language : English
Default : Yes
Forced : No
Color range : Limited
Color primaries : BT.709
Transfer characteristics : BT.709
Matrix coefficients : BT.709

Audio #1
ID : 2
Format : AC-3
Format/Info : Audio Coding 3
Format settings, Endianness : Big
Codec ID : A_AC3
Duration : 2 h 13 min
Bit rate mode : Constant
Bit rate : 384 kb/s
Channel(s) : 6 channels
Channel positions : Front: L C R, Side: L R, LFE
Sampling rate : 48.0 kHz
Frame rate : 31.250 FPS (1536 SPF)
Bit depth : 16 bits
Compression mode : Lossy
Stream size : 366 MiB (9%)
Title : Дублированный
Language : Russian
Service kind : Complete Main
Default : Yes
Forced : Yes

Audio #2
ID : 3
Format : AC-3
Format/Info : Audio Coding 3
Format settings, Endianness : Big
Codec ID : A_AC3
Duration : 2 h 13 min
Bit rate mode : Constant
Bit rate : 384 kb/s
Channel(s) : 6 channels
Channel positions : Front: L C R, Side: L R, LFE
Sampling rate : 48.0 kHz
Frame rate : 31.250 FPS (1536 SPF)
Bit depth : 16 bits
Compression mode : Lossy
Stream size : 366 MiB (9%)
Language : English
Service kind : Complete Main
Default : No
Forced : No

Text #1
ID : 4
Format : UTF-8
Codec ID : S_TEXT/UTF8
Codec ID/Info : UTF-8 Plain Text
Duration : 1 h 22 min
Bit rate : 0 b/s
Count of elements : 12
Stream size : 464 Bytes (0%)
Title : Форсированные
Language : Russian
Default : No
Forced : No

Text #2
ID : 5
Format : UTF-8
Codec ID : S_TEXT/UTF8
Codec ID/Info : UTF-8 Plain Text
Duration : 2 h 6 min
Bit rate : 60 b/s
Count of elements : 1024
Stream size : 55.8 KiB (0%)
Title : R5
Language : Russian
Default : No
Forced : No

Text #3
ID : 6
Format : UTF-8
Codec ID : S_TEXT/UTF8
Codec ID/Info : UTF-8 Plain Text
Duration : 2 h 8 min
Bit rate : 35 b/s
Count of elements : 1125
Stream size : 33.4 KiB (0%)
Title : SDH
Language : English
Default : No
Forced : No

Menu
00:00:00.000 : :Глава 1
00:08:19.956 : :Глава 2
00:14:20.860 : :Глава 3
00:22:15.250 : :Глава 4
00:28:32.919 : :Глава 5
00:34:54.382 : :Глава 6
00:43:24.518 : :Глава 7
00:50:49.880 : :Глава 8
01:00:24.661 : :Глава 9
01:07:04.228 : :Глава 10
01:15:08.795 : :Глава 11
01:22:58.595 : :Глава 12
01:28:38.520 : :Глава 13
01:35:30.430 : :Глава 14
01:45:58.143 : :Глава 15
01:51:46.908 : :Глава 16
01:59:24.989 : :Глава 17
02:04:43.265 : :Глава 18
02:13:05.894 : :Глава 19



Релиз от: Cthulhu


_________________
Проголосуй за трекер Открытый торрент трекер - RUS-MEDIA.ORG

Проголосуй Открытый торрент трекер - RUS-MEDIA.ORG


Скачать книги и аудио книги через торрент


Вернуться к началу
 Профиль Отправить личное сообщение  
 
   Похожие торренты   Автор   Торрент   Размер 
В этой теме нет новых непрочитанных сообщений. Три дня Кондора / Three Days of the Condor [Триллер, детектив, 1975] BDRip 1080p, Dub

salma3

0 | 0

16.28 ГБ

В этой теме нет новых непрочитанных сообщений. 30 дней ночи / 30 Days of Night [ужасы, триллер, 2007] BDRip-HEVC 1080p, Dub

salma3

10 | 2

7.45 ГБ

В этой теме нет новых непрочитанных сообщений. Три часа на побег / В упор / À bout portant [боевик, триллер, драма, 2010] BDRip 720p, Mvo

salma3

0 | 0

8.7 ГБ

В этой теме нет новых непрочитанных сообщений. Люди Икс: Дни минувшего будущего / X-Men: Days of Future Past [фантастика, боевик, триллер, 2014] BDRip-HEVC 1080p, Dub [Rogue Cut]

salma3

0 | 0

6.98 ГБ

В этой теме нет новых непрочитанных сообщений. Три дня Кондора / Three Days of the Condor [триллер, мелодрама, детектив, 1975] BDRip 720p, Mvo

salma3

15 | 6

10.94 ГБ

В этой теме нет новых непрочитанных сообщений. Замёрзшие / Frozen [Ужасы, Триллер, Драма, 2010] BDRip-HEVC 1080p, Dub+Sub

salma3

0 | 0

4.75 ГБ

В этой теме нет новых непрочитанных сообщений. Остаться в живых / Lost [S01-06] [Фантастика, триллер, драма, 2004-2010] BDRip-HEVC 1080p, Dub

salma3

0 | 0

329.52 ГБ


Начать новую тему Ответить на тему  [ 1 сообщение ] 




Для Мосгорсуда, Роскомнадзора и рекламодателей:: rstracker[собака]yandex.ru
cron