Торрент файл
скачать торрент магнет ссылка Добавлен: 10 ноя 2017, 22:48
Размер: 7.39 ГБ
Сидеров: 7
Личеров: 0
Статус: (salma3)
Автор

СообщениеДобавлено: 10 ноя 2017, 22:48 

Не в сети
Супермодератор
Аватара пользователя
Дата регистрации:
15 фев 2012, 16:44
Возраст: 28
Спасибо: 7203 / 2147
Сообщения: 65070
Год выхода: 1993
Страна: США
Продолжительность: 01:28:25
Жанр: мелодрама, комедия, семейный
Режиссер: Род Дэниэл

В ролях: Чарльз Гродин, Бонни Хант, Николь Том, Кристофер Кастиль, Сара Роуз Карр, Деби Мейзар, Крис Пенн, Эшли Хэмилтон, Дэнни Мастерсон, Катрин Рейтман, ...

Перевод:
- Профессиональный (дублированный) Ист-Вест
- Профессиональный (многоголосый, закадровый) Россия / Комедия ТВ
- Профессиональный (многоголосый, закадровый) ОРТ / СТС / Дисней
- Профессиональный (многоголосый, закадровый) SDI Media
- Профессиональный (двуголосый, закадровый) Премьер / НТВ
- Авторский (одноголосый, закадровый) Гаврилов Андрей Юрьевич
- Авторский (одноголосый, закадровый) Горчаков Василий Овидиевич
- Субтитры

О фильме: Псу, случайно названному именем великого композитора, не сразу удалось завоевать любовь главы семьи, но зато теперь они — настоящие друзья. Зрителям придется поволноваться, когда Бетховен будет попадать в опасные ситуации, зрителей насмешат его выходки и удивит его сообразительность, а суть — в том, что не только у людей бывает золотое сердце…



Кодек: x264
Качество: BDRip 1080p
Видео: 1920x1040, 9107 kbps, 23,976 fps
Аудио #1: AC-3, 2 ch, 192 kbps (Rus) - Dub Ист-Вест
Аудио #2: AC-3, 2 ch, 192 kbps (Rus) - MVO Россия / Комедия ТВ (SATRip)
Аудио #3: AC-3, 2 ch, 192 kbps (Rus) - MVO ОРТ / СТС / Дисней (SATRip)
Аудио #4: AC-3, 2 ch, 192 kbps (Rus) - MVO SDI Media (SATRip)
Аудио #5: AC-3, 2 ch, 192 kbps (Rus) - DVO Премьер / НТВ (SATRip)
Аудио #6: AC-3, 2 ch, 192 kbps (Rus) - AVO Гаврилов Андрей Юрьевич
Аудио #7: AC-3, 2 ch, 192 kbps (Rus) - AVO Горчаков Василий Овидиевич
Аудио #8: DTS, 6 ch, 1509 kbps (Eng)
Субтитры: русские, английские

Общее
Уникальный идентификатор : 221694798595637684758618733582889232689 (0xA6C8DD780C0FADFABEF02A83254FA931)
Полное имя : Бетховен 2 (Beethoven's 2nd) 1993 BDRip 1080p.mkv
Формат : Matroska
Версия формата : Version 2
Размер файла : 7,39 Гбайт
Продолжительность : 1 ч. 28 м.
Общий поток : 12,0 Мбит/сек
Дата кодирования : UTC 2017-11-09 15:58:50
Программа кодирования : mkvmerge v4.0.0 ('The Stars were mine') сборка от Jun 6 2010 16:18:42
Библиотека кодирования : libebml v1.0.0 + libmatroska v1.0.0

Видео
Идентификатор : 1
Формат : AVC
Формат/Информация : Advanced Video Codec
Профиль формата : High@L4.1
Параметр CABAC формата : Да
Параметр ReFrames формата : 4 кадра
Идентификатор кодека : V_MPEG4/ISO/AVC
Продолжительность : 1 ч. 28 м.
Битрейт : 9107 Кбит/сек
Ширина : 1920 пикселей
Высота : 1040 пикселей
Соотношение сторон : 1,85:1
Режим частоты кадров : Постоянный
Частота кадров : 23,976 (24000/1001) кадра/сек
Цветовое пространство : YUV
Субдискретизация насыщенности : 4:2:0
Битовая глубина : 8 бит
Тип развёртки : Прогрессивная
Бит/(Пиксели*Кадры) : 0.190
Размер потока : 5,48 Гбайт (74%)
Библиотека кодирования : x264 core 152 r2851kMod ba24899
Настройки программы : cabac=1 / ref=4 / deblock=1:-3:-3 / analyse=0x3:0x133 / me=umh / subme=8 / psy=1 / fade_compensate=0.00 / psy_rd=1.00:0.00 / mixed_ref=1 / me_range=16 / chroma_me=1 / trellis=1 / 8x8dct=1 / cqm=0 / deadzone=21,11 / fast_pskip=0 / chroma_qp_offset=-2 / threads=24 / lookahead_threads=4 / sliced_threads=0 / nr=0 / decimate=1 / interlaced=0 / bluray_compat=0 / constrained_intra=0 / bframes=3 / b_pyramid=2 / b_adapt=1 / b_bias=0 / direct=3 / weightb=1 / open_gop=0 / weightp=2 / keyint=250 / keyint_min=23 / scenecut=40 / intra_refresh=0 / rc_lookahead=50 / rc=2pass / mbtree=1 / bitrate=9107 / ratetol=1.0 / qcomp=0.60 / qpmin=0 / qpmax=69 / qpstep=4 / cplxblur=20.0 / qblur=0.5 / vbv_maxrate=62500 / vbv_bufsize=78125 / nal_hrd=none / filler=0 / ip_ratio=1.40 / aq=1:1.00
Язык : English
Default : Нет
Forced : Нет

Аудио #1
Идентификатор : 2
Формат : AC-3
Формат/Информация : Audio Coding 3
Расширение режима : CM (complete main)
Параметр Endianness формата : Big
Идентификатор кодека : A_AC3
Продолжительность : 1 ч. 28 м.
Вид битрейта : Постоянный
Битрейт : 192 Кбит/сек
Каналы : 2 канала
Расположение каналов : Front: L R
Частота : 48,0 КГц
Частота кадров : 31,250 кадров/сек (1536 spf)
Метод сжатия : С потерями
Размер потока : 121 Мбайт (2%)
Заголовок : Dub Ист-Вест
Язык : Russian
Default : Нет
Forced : Нет

Аудио #2
Идентификатор : 3
Формат : AC-3
Формат/Информация : Audio Coding 3
Расширение режима : CM (complete main)
Параметр Endianness формата : Big
Идентификатор кодека : A_AC3
Продолжительность : 1 ч. 28 м.
Вид битрейта : Постоянный
Битрейт : 192 Кбит/сек
Каналы : 2 канала
Расположение каналов : Front: L R
Частота : 48,0 КГц
Частота кадров : 31,250 кадров/сек (1536 spf)
Метод сжатия : С потерями
Размер потока : 121 Мбайт (2%)
Заголовок : MVO Россия / Комедия ТВ (SATRip)
Язык : Russian
Default : Нет
Forced : Нет

Аудио #3
Идентификатор : 4
Формат : AC-3
Формат/Информация : Audio Coding 3
Расширение режима : CM (complete main)
Параметр Endianness формата : Big
Идентификатор кодека : A_AC3
Продолжительность : 1 ч. 28 м.
Вид битрейта : Постоянный
Битрейт : 192 Кбит/сек
Каналы : 2 канала
Расположение каналов : Front: L R
Частота : 48,0 КГц
Частота кадров : 31,250 кадров/сек (1536 spf)
Метод сжатия : С потерями
Размер потока : 121 Мбайт (2%)
Заголовок : MVO ОРТ / СТС / Дисней (SATRip)
Язык : Russian
Default : Нет
Forced : Нет

Аудио #4
Идентификатор : 5
Формат : AC-3
Формат/Информация : Audio Coding 3
Расширение режима : CM (complete main)
Параметр Endianness формата : Big
Идентификатор кодека : A_AC3
Продолжительность : 1 ч. 28 м.
Вид битрейта : Постоянный
Битрейт : 192 Кбит/сек
Каналы : 2 канала
Расположение каналов : Front: L R
Частота : 48,0 КГц
Частота кадров : 31,250 кадров/сек (1536 spf)
Метод сжатия : С потерями
Размер потока : 121 Мбайт (2%)
Заголовок : MVO SDI Media (SATRip)
Язык : Russian
Default : Нет
Forced : Нет

Аудио #5
Идентификатор : 6
Формат : AC-3
Формат/Информация : Audio Coding 3
Расширение режима : CM (complete main)
Параметр Endianness формата : Big
Идентификатор кодека : A_AC3
Продолжительность : 1 ч. 28 м.
Вид битрейта : Постоянный
Битрейт : 192 Кбит/сек
Каналы : 2 канала
Расположение каналов : Front: L R
Частота : 48,0 КГц
Частота кадров : 31,250 кадров/сек (1536 spf)
Метод сжатия : С потерями
Размер потока : 121 Мбайт (2%)
Заголовок : DVO Премьер Видео Фильм / НТВ (SATRip)
Язык : Russian
Default : Нет
Forced : Нет

Аудио #6
Идентификатор : 7
Формат : AC-3
Формат/Информация : Audio Coding 3
Расширение режима : CM (complete main)
Параметр Endianness формата : Big
Идентификатор кодека : A_AC3
Продолжительность : 1 ч. 28 м.
Вид битрейта : Постоянный
Битрейт : 192 Кбит/сек
Каналы : 2 канала
Расположение каналов : Front: L R
Частота : 48,0 КГц
Частота кадров : 31,250 кадров/сек (1536 spf)
Метод сжатия : С потерями
Размер потока : 121 Мбайт (2%)
Заголовок : AVO Гаврилов Андрей Юрьевич
Язык : Russian
Default : Нет
Forced : Нет

Аудио #7
Идентификатор : 8
Формат : AC-3
Формат/Информация : Audio Coding 3
Расширение режима : CM (complete main)
Параметр Endianness формата : Big
Идентификатор кодека : A_AC3
Продолжительность : 1 ч. 28 м.
Вид битрейта : Постоянный
Битрейт : 192 Кбит/сек
Каналы : 2 канала
Расположение каналов : Front: L R
Частота : 48,0 КГц
Частота кадров : 31,250 кадров/сек (1536 spf)
Метод сжатия : С потерями
Размер потока : 121 Мбайт (2%)
Заголовок : AVO Горчаков Василий Овидиевич
Язык : Russian
Default : Нет
Forced : Нет

Аудио #8
Идентификатор : 9
Формат : DTS
Формат/Информация : Digital Theater Systems
Режим : 16
Параметр Endianness формата : Big
Идентификатор кодека : A_DTS
Продолжительность : 1 ч. 28 м.
Вид битрейта : Постоянный
Битрейт : 1509 Кбит/сек
Каналы : 6 каналов
Расположение каналов : Front: L C R, Side: L R, LFE
Частота : 48,0 КГц
Частота кадров : 93,750 кадра/сек (512 spf)
Битовая глубина : 24 бит
Метод сжатия : С потерями
Размер потока : 954 Мбайт (13%)
Язык : English
Default : Нет
Forced : Нет

Текст #1
Идентификатор : 10
Формат : UTF-8
Идентификатор кодека : S_TEXT/UTF8
Идентификатор кодека/Информация : UTF-8 Plain Text
Язык : Russian
Default : Нет
Forced : Нет

Текст #2
Идентификатор : 11
Формат : UTF-8
Идентификатор кодека : S_TEXT/UTF8
Идентификатор кодека/Информация : UTF-8 Plain Text
Язык : English
Default : Нет
Forced : Нет

Меню
00:00:00.000 : en:00:00:00.000
00:06:24.384 : en:00:06:24.384
00:14:56.896 : en:00:14:56.896
00:20:25.224 : en:00:20:25.224
00:29:49.788 : en:00:29:49.788
00:46:09.767 : en:00:46:09.767
00:50:55.469 : en:00:50:55.469
00:57:53.470 : en:00:57:53.470
01:03:24.801 : en:01:03:24.801
01:14:12.448 : en:01:14:12.448
01:20:59.271 : en:01:20:59.271
01:23:18.994 : en:01:23:18.994



_________________
Проголосуй за трекер Открытый торрент трекер - RUS-MEDIA.ORG

Проголосуй Открытый торрент трекер - RUS-MEDIA.ORG


Вернуться к началу
 Профиль Отправить личное сообщение  
 
   Похожие торренты   Автор   Торрент   Размер 
В этой теме нет новых непрочитанных сообщений. Бетховен / Beethoven [драма, комедия, семейный, 1992] BDRip 1080p, Dub

salma3

11 | 10

11.8 ГБ

В этой теме нет новых непрочитанных сообщений. Бетховен 4 / Beethoven's 4th [комедия, семейный, 2001] WEB-DL 1080p, Mvo

salma3

1 | 1

7.52 ГБ

В этой теме нет новых непрочитанных сообщений. Бетховен 3 / Beethoven's 3rd [комедия, семейный, 2000] WEB-DL 1080p, Mvo

salma3

3 | 1

9.28 ГБ

В этой теме нет новых непрочитанных сообщений. Бетховен / Beethoven [комедия, семейный, драма, 1992] BDRemux 1080p, Mvo

salma3

4 | 6

22.39 ГБ

В этой теме нет новых непрочитанных сообщений. Бетховен / Beethoven [драма, комедия, семейный, 1992] BDRip 720p, Dub

salma3

19 | 15

7.46 ГБ

В этой теме нет новых непрочитанных сообщений. Консьерж / For Love or Money [драма, мелодрама, комедия, 1993] BDRip 1080p, Dub

salma3

15 | 10

10.66 ГБ

В этой теме нет новых непрочитанных сообщений. Свадебный банкет / The Wedding Banquet [драма, мелодрама, комедия, 1993] BDRip 1080p, Avo

salma3

9 | 5

11.17 ГБ


Начать новую тему Ответить на тему  [ 1 сообщение ] 




Для Мосгорсуда, Роскомнадзора и рекламодателей:: mosgorsud-torrent[собачка]yandex.ru
cron