Торрент файл
скачать торрент магнет ссылка Добавлен: 10 ноя 2017, 22:25
Размер: 2.88 ГБ
Сидеров: 68
Личеров: 3
Статус: (salma3)
Автор

СообщениеДобавлено: 10 ноя 2017, 22:25 

Не в сети
Супермодератор
Аватара пользователя
Дата регистрации:
15 фев 2012, 16:44
Возраст: 28
Спасибо: 6659 / 2146
Сообщения: 46021
Год выхода: 2017
Жанр: Криминал
Режиссер: Закари Адлер

В ролях: Крэйг Фэйрбрасс, Терри Стоун, Роланд Манукян, Джэми Формен, Джош Майерс, Эдди Веббер, Йен Вирго, Энди Беквит, Шон Райдер, Лаура МакМонэйгл и другие

О фильме:
Известный гангстер, Пэт Тэйл, решает заполучить господство чёрного рынка Эссекса. Огромные деньги от продажи наркотиков - что может быть лучше, но у этой игры тоже есть свои правила, а за их нарушение придётся поплатиться жизнью.



Страна: Великобритания, Carnaby International
Продолжительность: 01:39:54
Перевод: Любительский (двухголосый закадровый)[RecentFilms]

Файл
Кодек: MPEG-4 AVC/H.264
Качество: WEBRip 720p
Видео: 1280x690, 23,976 fps, ~3936 Kbps, 0.186 bit/pixel
Аудио rus: AC3, 48 kHz, 2 ch, 192 Kbps

Реклама: присутствует

Семпл

General
Unique ID : 250252738566084653642317300387949033830 (0xBC44EC9E118698AC8F7D4CAE79B3B966)
Complete name : F:FilmsRise.of.the.Footsoldier.3.2017.720p.WEBRip.RecentFilmsRise.of.the.Footsoldier.3.2017.720p.WEBRip.RecentFilms.mkv
Format : Matroska
Format version : Version 4 / Version 2
File size : 2.88 GiB
Duration : 1h 39mn
Overall bit rate : 4 130 Kbps
Encoded date : UTC 2017-11-10 14:26:44
Writing application : mkvmerge v7.8.0 ('River Man') 64bit built on Mar 27 2015 16:31:37
Writing library : libebml v1.3.1 + libmatroska v1.4.2

Video
ID : 1
Format : AVC
Format/Info : Advanced Video Codec
Format profile : Main@L3.2
Format settings, CABAC : Yes
Format settings, ReFrames : 3 frames
Codec ID : V_MPEG4/ISO/AVC
Duration : 1h 39mn
Bit rate : 3 936 Kbps
Width : 1 280 pixels
Height : 690 pixels
Display aspect ratio : 1.85:1
Frame rate mode : Constant
Frame rate : 23.976 (24000/1001) fps
Standard : NTSC
Color space : YUV
Chroma subsampling : 4:2:0
Bit depth : 8 bits
Scan type : Progressive
Bits/(Pixel*Frame) : 0.186
Stream size : 2.75 GiB (95%)
Language : English
Default : Yes
Forced : No
Color range : Limited
Color primaries : BT.709
Transfer characteristics : BT.709
Matrix coefficients : BT.709

Audio
ID : 2
Format : AC-3
Format/Info : Audio Coding 3
Mode extension : CM (complete main)
Format settings, Endianness : Big
Codec ID : A_AC3
Duration : 1h 39mn
Bit rate mode : Constant
Bit rate : 192 Kbps
Channel(s) : 2 channels
Channel positions : Front: L R
Sampling rate : 48.0 KHz
Frame rate : 31.250 fps (1536 spf)
Compression mode : Lossy
Stream size : 137 MiB (5%)
Default : Yes
Forced : No



Релиз от: RecentFilms


_________________
Проголосуй за трекер Открытый торрент трекер - RUS-MEDIA.ORG

Проголосуй Открытый торрент трекер - RUS-MEDIA.ORG



реклама партнёра


Вернуться к началу
 Профиль Отправить личное сообщение  
 
   Похожие торренты   Автор   Торрент   Размер 
В этой теме нет новых непрочитанных сообщений. Восхождение пехотинца 3 / Rise of the Footsoldier 3 [Криминал, 2017] WEBRip, Dvo

salma3

127 | 23

1.37 ГБ

В этой теме нет новых непрочитанных сообщений. Восхождение пехотинца. Часть II / Rise of the Footsoldier Part II [криминал, 2015] BDRip, AVO

salma3

199 | 43

1.46 ГБ

В этой теме нет новых непрочитанных сообщений. Нарко / Narcos [S03] [драма, криминал, 2017] WEBRip 720p, Mvo [Jaskier]

salma3

7 | 11

14.01 ГБ

В этой теме нет новых непрочитанных сообщений. Нарко / Narcos [S03] [Драма, Криминал, 2017] WEBRip 720p, Mvo [NewStudio]

salma3

73 | 28

14.01 ГБ

В этой теме нет новых непрочитанных сообщений. Родина / Homeland [S06] [Триллер, драма, криминал, 2017] WEBRip 720p, Mvo+Sub [LostFilm]

salma3

89 | 77

28.68 ГБ

В этой теме нет новых непрочитанных сообщений. Защитники / The Defenders [S01] [фантастика, боевик, криминал, 2017] WEBRip 720p, Mvo [LostFilm]

salma3

19 | 6

7.11 ГБ

В этой теме нет новых непрочитанных сообщений. Подлый Пит / Sneaky Pete [S01] [Драма, криминал, 2017] WEBRip 720p, Mvo [LostFilm]

salma3

111 | 60

18.12 ГБ


Начать новую тему Ответить на тему  [ 1 сообщение ] 




Для Мосгорсуда, Роскомнадзора и рекламодателей:: mosgorsud-torrent[собачка]yandex.ru