Торрент файл
скачать торрент магнет ссылка Добавлен: 10 ноя 2017, 12:18
Размер: 4.51 ГБ
Сидеров: 25
Личеров: 5
Статус: (salma3)
Автор

СообщениеДобавлено: 10 ноя 2017, 12:18 

Не в сети
Супермодератор
Аватара пользователя
Дата регистрации:
15 фев 2012, 16:44
Возраст: 28
Спасибо: 7165 / 2147
Сообщения: 62258
Год выпуска: 2008
Жанр: Ужасы, триллер
Режиссер: Рюхэй Китамура

В ролях: Брэдли Купер, Лесли Бибб, Брук Шилдс, Винни Джонс, Роджер Барт, Тони Каррен, Барбара Ив Харрис, Питер Джекобсон, Стефани Мейс, Тед Эйми

О фильме:
Молодой фотограф криминальной хроники Леон Кауфман получает выгодное предложение показать публике свои работы от одной Нью-Йоркской галереи. В своих фотографиях он должен отразить «все экстремальное и темное», что есть в городе. В поисках сюжета поздно ночью он случайно становится свидетелем ужасного убийства молодой девушки в подземке. Понимая, что его фотографии могут помочь полиции в поимке убийцы, Леон все больше вовлекается в это дело и в скором времени узнает, что его собственная девушка Мая тоже похищена. Теперь он должен в кратчайшие сроки разгадать тайну жестоких убийств в подземке и успеть спасти свою девушку, пока не поздно…



Страна: США
Продолжительность: 01:42:57
Перевод: Дублированный

Качество: BDRip 720p
Видео: AVC, 1280x544 (2.35:1), 23.976 fps, 5 183 Kbps (0.310 bit/pixel)
Аудио #1: AC-3, 48.0 KHz, 6 ch, 448 Kbps, CBR (Russian) - дублированный
Аудио #2: AC-3, 48.0 KHz, 6 ch, 448 Kbps, CBR (English) - оригинальная звуковая дорожка
Аудио #3: AC-3 Dolby Digital, 48.0 KHz, 2 ch, 224 Kbps, CBR (English) - комментарии режиссера
Субтитры: Русские, английские

Релиз:

x264 [info]: frame I:928 Avg QP:18.44 size: 81540 PSNR Mean Y:44.05 U:49.23 V:49.57 Avg:45.15 Global:43.47
x264 [info]: frame P:30708 Avg QP:19.22 size: 40801 PSNR Mean Y:43.36 U:49.00 V:49.25 Avg:44.47 Global:42.31
x264 [info]: frame B:116474 Avg QP:21.75 size: 21424 PSNR Mean Y:41.53 U:48.66 V:49.21 Avg:42.82 Global:40.65
Формат : Matroska
Версия формата : Version 2
Размер файла : 4,51 Гбайт
Продолжительность : 1 ч. 42 м.
Общий поток : 6274 Кбит/сек
Дата кодирования : UTC 2017-05-31 00:54:09
Программа кодирования : mkvmerge v5.3.0 ('I could have danced') built on Feb 9 2012 10:38:07
Библиотека кодирования : libebml v1.2.3 + libmatroska v1.3.0
Attachments : poster.jpg

Видео
Идентификатор : 1
Формат : AVC
Формат/Информация : Advanced Video Codec
Профиль формата : High@L4.1
Параметр CABAC формата : Да
Параметр ReFrames формата : 12 кадров
Идентификатор кодека : V_MPEG4/ISO/AVC
Продолжительность : 1 ч. 42 м.
Битрейт : 5183 Кбит/сек
Ширина : 1280 пикселей
Высота : 544 пикселя
Соотношение сторон : 2,35:1
Режим частоты кадров : Постоянный
Частота кадров : 23,976 (24000/1001) кадра/сек
Цветовое пространство : YUV
Субдискретизация насыщенности : 4:2:0
Битовая глубина : 8 бит
Тип развёртки : Прогрессивная
Бит/(Пиксели*Кадры) : 0.310
Размер потока : 3,62 Гбайт (80%)
Библиотека кодирования : x264 core 146 r2538 121396c
Настройки программы : cabac=1 / ref=12 / deblock=1:-3:-3 / analyse=0x3:0x133 / me=umh / subme=11 / psy=1 / psy_rd=1.00:0.00 / mixed_ref=1 / me_range=32 / chroma_me=1 / trellis=2 / 8x8dct=1 / cqm=0 / deadzone=21,11 / fast_pskip=0 / chroma_qp_offset=-2 / threads=12 / lookahead_threads=3 / sliced_threads=0 / nr=0 / decimate=1 / interlaced=0 / bluray_compat=0 / constrained_intra=0 / bframes=11 / b_pyramid=2 / b_adapt=2 / b_bias=0 / direct=3 / weightb=1 / open_gop=0 / weightp=2 / keyint=240 / keyint_min=23 / scenecut=40 / intra_refresh=0 / rc=2pass / mbtree=0 / bitrate=5183 / ratetol=1.0 / qcomp=0.60 / qpmin=0 / qpmax=69 / qpstep=4 / cplxblur=20.0 / qblur=0.5 / ip_ratio=1.40 / pb_ratio=1.30 / aq=3:0.90
Язык : English
Default : Да
Forced : Нет

Аудио #1
Идентификатор : 2
Формат : AC-3
Формат/Информация : Audio Coding 3
Расширение режима : CM (complete main)
Параметр Endianness формата : Big
Идентификатор кодека : A_AC3
Продолжительность : 1 ч. 42 м.
Вид битрейта : Постоянный
Битрейт : 448 Кбит/сек
Каналы : 6 каналов
Расположение каналов : Front: L C R, Side: L R, LFE
Частота : 48,0 КГц
Частота кадров : 31,250 кадров/сек (1536 spf)
Битовая глубина : 16 бит
Метод сжатия : С потерями
Размер потока : 330 Мбайт (7%)
Заголовок : Дублированный
Язык : Russian
Default : Да
Forced : Нет

Аудио #2
Идентификатор : 3
Формат : AC-3
Формат/Информация : Audio Coding 3
Расширение режима : CM (complete main)
Параметр Endianness формата : Big
Идентификатор кодека : A_AC3
Продолжительность : 1 ч. 42 м.
Вид битрейта : Постоянный
Битрейт : 448 Кбит/сек
Каналы : 6 каналов
Расположение каналов : Front: L C R, Side: L R, LFE
Частота : 48,0 КГц
Частота кадров : 31,250 кадров/сек (1536 spf)
Битовая глубина : 16 бит
Метод сжатия : С потерями
Размер потока : 330 Мбайт (7%)
Заголовок : оригинал
Язык : English
Default : Нет
Forced : Нет

Аудио #3
Идентификатор : 4
Формат : AC-3
Формат/Информация : Audio Coding 3
Профиль формата : Dolby Digital
Расширение режима : CM (complete main)
Параметр Endianness формата : Big
Идентификатор кодека : A_AC3
Продолжительность : 1 ч. 42 м.
Вид битрейта : Постоянный
Битрейт : 224 Кбит/сек
Каналы : 2 канала
Расположение каналов : Front: L R
Частота : 48,0 КГц
Частота кадров : 31,250 кадров/сек (1536 spf)
Битовая глубина : 16 бит
Метод сжатия : С потерями
Размер потока : 165 Мбайт (4%)
Заголовок : комментарии
Язык : English
Default : Нет
Forced : Нет

Текст #1
Идентификатор : 5
Формат : UTF-8
Идентификатор кодека : S_TEXT/UTF8
Идентификатор кодека/Информация : UTF-8 Plain Text
Заголовок : force
Язык : Russian
Default : Да
Forced : Да

Текст #2
Идентификатор : 6
Формат : UTF-8
Идентификатор кодека : S_TEXT/UTF8
Идентификатор кодека/Информация : UTF-8 Plain Text
Заголовок : full
Язык : Russian
Default : Нет
Forced : Нет

Текст #3
Идентификатор : 7
Формат : UTF-8
Идентификатор кодека : S_TEXT/UTF8
Идентификатор кодека/Информация : UTF-8 Plain Text
Заголовок : full
Язык : English
Default : Нет
Forced : Нет

Меню
00:00:00.000 : :Chapter 01
00:05:00.000 : :Chapter 02
00:10:00.000 : :Chapter 03
00:15:00.000 : :Chapter 04
00:20:00.000 : :Chapter 05
00:25:00.000 : :Chapter 06
00:30:00.000 : :Chapter 07
00:35:00.000 : :Chapter 08
00:40:00.000 : :Chapter 09
00:45:00.000 : :Chapter 10
00:50:00.000 : :Chapter 11
00:55:00.000 : :Chapter 12
01:00:00.000 : :Chapter 13
01:05:00.000 : :Chapter 14
01:10:00.000 : :Chapter 15
01:15:00.000 : :Chapter 16
01:20:00.000 : :Chapter 17
01:25:00.000 : :Chapter 18
01:30:00.000 : :Chapter 19
01:35:00.000 : :Chapter 20
01:40:00.000 : :Chapter 21


_________________
Проголосуй за трекер Открытый торрент трекер - RUS-MEDIA.ORG

Проголосуй Открытый торрент трекер - RUS-MEDIA.ORG


Вернуться к началу
 Профиль Отправить личное сообщение  
 
   Похожие торренты   Автор   Торрент   Размер 
В этой теме нет новых непрочитанных сообщений. Полуночный экспресс / The Midnight Meat Train [Ужасы, триллер, 2008] BDRemux 1080p, Dub+Sub [Directors Cut]

salma3

25 | 175

19.22 ГБ

В этой теме нет новых непрочитанных сообщений. Полуночный экспресс / Midnight Express [триллер, драма, криминал, биография, 1978] BDRemux 1080p, Dub+Mvo+Avo

salma3

4 | 11

28.09 ГБ

В этой теме нет новых непрочитанных сообщений. Специальный полуночный выпуск / Midnight Special [фантастика, триллер, драма, приключения, 2016] BDRip 720p, Mvo

salma3

47 | 7

6.65 ГБ

В этой теме нет новых непрочитанных сообщений. Полуночный человек / The Midnight Man [Ужасы, 2017] WEB-DL 720p, Dub [Line]

salma3

0 | 0

3.14 ГБ

В этой теме нет новых непрочитанных сообщений. Полуночный ковбой / Midnight Cowboy [драма, 1969] BDRip 720p, Mvo

salma3

23 | 8

7 ГБ

В этой теме нет новых непрочитанных сообщений. Специальный полуночный выпуск / Midnight Special [фантастика, триллер, драма, приключения, 2016] BDRip 1080p, Mvo

salma3

65 | 2

9.13 ГБ

В этой теме нет новых непрочитанных сообщений. Полуночный человек / The Midnight Man [Ужасы, 2017] WEB-DLRip-AVC, Dub [Line]

salma3

180 | 68

746.12 МБ


Начать новую тему Ответить на тему  [ 1 сообщение ] 




Для Мосгорсуда, Роскомнадзора и рекламодателей:: mosgorsud-torrent[собачка]yandex.ru
cron