Торрент файл
скачать торрент магнет ссылка Добавлен: 10 ноя 2017, 12:03
Размер: 14.23 ГБ
Сидеров: 2
Личеров: 1
Статус: (salma3)
Автор

СообщениеДобавлено: 10 ноя 2017, 12:03 

Не в сети
Супермодератор
Аватара пользователя
Дата регистрации:
15 фев 2012, 16:44
Возраст: 29
Спасибо: 7331 / 2147
Сообщения: 73810
Год выпуска: 1999
Жанр: боевик, драма, комедия
Режиссер: Дэвид О. Расселл

В ролях: Джордж Клуни, Марк Уолберг, Айс Кьюб, Спайк Джонз, Нора Данн, Джэми Кеннеди, Микелти Уильямсон, Клифф Кёртис, Саид Тагмауи, Джуди Крир, Лиз Стаубер, Холт МакКэллани

О фильме:
Ирак, март 1991-го года. Американцы празднуют победу - изгнание войск Саддама Хусейна из Кувейта. Капитан спецподразделения Арчи Гейтс и трое его подчиненных совершенно случайно становятся обладателями секретной карты, найденной в... заднем проходе одного из иракских воинов. Ценность ее заключается в том, что на карте указано место, где спрятано золото Саддама, награбленное в Кувейте.


Страна: США
Продолжительность: 01:54:54
Перевод: Профессиональный (дублированный) Blu-ray EUR + Авторский (одноголосый, закадровый) Ю.Живов + Авторский (одноголосый, закадровый) А.Кашкин (с VHS)

Файл
Качество: WEB-DL 1080p
Формат: Matroska
Видео: 1920x1080 at 23.976 fps, MPEG-4 AVC, ~13234 kbps avg
Аудио#1: Russian: 48 kHz, AC3, 3/2 (L,C,R,l,r) + LFE ch, ~640 kbps avg |Дубляж, Blu-ray EUR|
Аудио#2: Russian: 48 kHz, DTS, 3/2 (L,C,R,l,r) + LFE ch, ~1509 kbps avg |Авторский, Ю.Живов|
Аудио#3: Russian: 48 kHz, AC3, 2,0 (L,R) ch, ~192 kbps avg |Авторский, А.Кашкин (с VHS)|
Аудио#4: English: 48 kHz, DTS, 3/2 (L,C,R,l,r) + LFE ch, ~1509 kbps avg |Blu-ray|
Аудио#5: English: 48 kHz, E-AC3, 3/2 (L,C,R,l,r) + LFE ch, ~640 kbps avg |Amazon|
Субтитры: Russian, English (SDH)

***Исходник видео - Amazon.
***Релиз - spartanec163.

General
Unique ID : 192094274711806068594128650344268121384 (0x908402F6FDA9514AA0CDDFEDBCDD4528)
Complete name : Three.Kings.1999.Open.Matte.1080p.WEB-DL.3xRus.Eng.mkv
Format : Matroska
Format version : Version 4 / Version 2
File size : 14.2 GiB
Duration : 1 h 54 min
Overall bit rate mode : Variable
Overall bit rate : 17.7 Mb/s
Movie name : Three.Kings.1999.Open.Matte.1080p.WEB-DL.3xRus.Eng-spartanec163
Encoded date : UTC 2017-11-09 18:33:22
Writing application : mkvmerge v8.3.0 ('Over the Horizon') 64bit
Writing library : libebml v1.3.1 + libmatroska v1.4.2

Video
ID : 1
Format : AVC
Format/Info : Advanced Video Codec
Format profile : High@L4
Format settings : CABAC / 4 Ref Frames
Format settings, CABAC : Yes
Format settings, RefFrames : 4 frames
Codec ID : V_MPEG4/ISO/AVC
Duration : 1 h 54 min
Bit rate mode : Variable
Bit rate : 13.2 Mb/s
Maximum bit rate : 15.0 Mb/s
Width : 1 920 pixels
Height : 1 080 pixels
Display aspect ratio : 16:9
Frame rate mode : Constant
Frame rate : 23.976 (24000/1001) FPS
Color space : YUV
Chroma subsampling : 4:2:0
Bit depth : 8 bits
Scan type : Progressive
Bits/(Pixel*Frame) : 0.266
Stream size : 10.6 GiB (75%)
Title : WEB-DL 1080p (Amazon)
Language : English
Default : Yes
Forced : No
Color range : Limited
Color primaries : BT.709
Transfer characteristics : BT.709
Matrix coefficients : BT.709

Audio #1
ID : 2
Format : AC-3
Format/Info : Audio Coding 3
Codec ID : A_AC3
Duration : 1 h 54 min
Bit rate mode : Constant
Bit rate : 640 kb/s
Channel(s) : 6 channels
Channel positions : Front: L C R, Side: L R, LFE
Sampling rate : 48.0 kHz
Frame rate : 31.250 FPS (1536 SPF)
Bit depth : 16 bits
Compression mode : Lossy
Stream size : 526 MiB (4%)
Title : AC3 5.1 640Kbps (Дубляж - BluRay)
Language : Russian
Service kind : Complete Main
Default : Yes
Forced : No

Audio #2
ID : 3
Format : DTS
Format/Info : Digital Theater Systems
Codec ID : A_DTS
Duration : 1 h 54 min
Bit rate mode : Constant
Bit rate : 1 510 kb/s
Channel(s) : 6 channels
Channel positions : Front: L C R, Side: L R, LFE
Sampling rate : 48.0 kHz
Frame rate : 93.750 FPS (512 SPF)
Bit depth : 24 bits
Compression mode : Lossy
Stream size : 1.21 GiB (9%)
Title : DTS 5.1 1509Kbps (Авторский, одноголосый - Живов)
Language : Russian
Default : No
Forced : No

Audio #3
ID : 4
Format : AC-3
Format/Info : Audio Coding 3
Codec ID : A_AC3
Duration : 1 h 54 min
Bit rate mode : Constant
Bit rate : 192 kb/s
Channel(s) : 2 channels
Channel positions : Front: L R
Sampling rate : 48.0 kHz
Frame rate : 31.250 FPS (1536 SPF)
Bit depth : 16 bits
Compression mode : Lossy
Stream size : 158 MiB (1%)
Title : AC3 2.0 192Kbps (Авторский, одноголосый - Кашкин, с VHS)
Language : Russian
Service kind : Complete Main
Default : No
Forced : No

Audio #4
ID : 5
Format : DTS
Format/Info : Digital Theater Systems
Codec ID : A_DTS
Duration : 1 h 54 min
Bit rate mode : Constant
Bit rate : 1 509 kb/s
Channel(s) : 6 channels
Channel positions : Front: L C R, Side: L R, LFE
Sampling rate : 48.0 kHz
Frame rate : 93.750 FPS (512 SPF)
Bit depth : 24 bits
Compression mode : Lossy
Stream size : 1.21 GiB (9%)
Title : DTS 5.1 1509Kbps (Оригинал - BluRay)
Language : English
Default : No
Forced : No

Audio #5
ID : 6
Format : E-AC-3
Format/Info : Enhanced Audio Coding 3
Codec ID : A_EAC3
Duration : 1 h 54 min
Bit rate mode : Constant
Bit rate : 640 kb/s
Channel(s) : 6 channels
Channel positions : Front: L C R, Side: L R, LFE
Sampling rate : 48.0 kHz
Frame rate : 187.500 FPS (256 SPF)
Compression mode : Lossy
Stream size : 526 MiB (4%)
Title : E-AC3 5.1 640Kbps (Оригинал - Amazon)
Language : English
Service kind : Complete Main
Default : No
Forced : No

Text #1
ID : 7
Format : UTF-8
Codec ID : S_TEXT/UTF8
Codec ID/Info : UTF-8 Plain Text
Duration : 1 h 53 min
Bit rate : 80 b/s
Count of elements : 1320
Stream size : 67.1 KiB (0%)
Language : Russian
Default : No
Forced : No

Text #2
ID : 8
Format : UTF-8
Codec ID : S_TEXT/UTF8
Codec ID/Info : UTF-8 Plain Text
Duration : 1 h 48 min
Bit rate : 68 b/s
Count of elements : 1538
Stream size : 54.3 KiB (0%)
Title : SDH
Language : English
Default : No
Forced : No


_________________
Проголосуй за трекер Открытый торрент трекер - RUS-MEDIA.ORG

Проголосуй Открытый торрент трекер - RUS-MEDIA.ORG


Вернуться к началу
 Профиль Отправить личное сообщение  
 
   Похожие торренты   Автор   Торрент   Размер 
В этой теме нет новых непрочитанных сообщений. Три короля / Three Kings [Боевик, драма, комедия, 1999] BDRemux 1080p, Dub

salma3

0 | 0

25.68 ГБ

В этой теме нет новых непрочитанных сообщений. Три короля / Three Kings [боевик, драма, военный, 1999] BDRip, Dub

salma3

36 | 7

2.18 ГБ

В этой теме нет новых непрочитанных сообщений. Три короля / Three Kings [боевик, драма, военный, 1999] HDRip, Dub

salma3

0 | 0

1.45 ГБ

В этой теме нет новых непрочитанных сообщений. Исход: Цари и боги / Exodus: Gods and Kings [боевик, драма, приключения, 2014] HDTV 1080i, Dub [Open Matte]

salma3

0 | 0

7.06 ГБ

В этой теме нет новых непрочитанных сообщений. Конец света / End of Days [ужасы, фэнтези, боевик, 1999] WEB-DL 1080p, Dub+Mvo+Avo+Sub [Open Matte]

salma3

32 | 16

16.28 ГБ

В этой теме нет новых непрочитанных сообщений. Ноттинг Хилл / Notting Hill [мелодрама, комедия, 1999] WEB-DL 1080p, Dub [Open Matte]

salma3

0 | 0

15.45 ГБ

В этой теме нет новых непрочитанных сообщений. Власть страха / The Bone Collector [триллер, драма, криминал, 1999] WEB-DL 1080p, Dub [Open Matte]

salma3

10 | 0

16.09 ГБ


Начать новую тему Ответить на тему  [ 1 сообщение ] 




Для Мосгорсуда, Роскомнадзора и рекламодателей:: mosgorsud-torrent[собачка]yandex.ru
cron