Торрент файл
скачать торрент магнет ссылка Добавлен: 09 ноя 2017, 14:54
Размер: 10.37 ГБ
Сидеров: 13
Личеров: 11
Статус: (salma3)
Автор

СообщениеДобавлено: 09 ноя 2017, 14:54 

Не в сети
Супермодератор
Аватара пользователя
Дата регистрации:
15 фев 2012, 16:44
Возраст: 28
Спасибо: 7223 / 2147
Сообщения: 67839
Год выхода: 1990
Страна: США
Продолжительность: 01:44:02
Жанр: вестерн
Режиссер: Джеф Мерфи

В ролях: Эмилио Эстевез, Кифер Сазерленд, Лу Даймонд Филлипс, Кристиан Слэйтер, Уильям Л. Питерсен, Алан Рак, Р.Д. Колл, Джеймс Коберн, Бальтазар Гетти, Джек Кихоу, ...

Перевод:
- Профессиональный (двуголосый, закадровый) SDI Media
- Профессиональный (двуголосый, закадровый) Екатеринбург-Арт
- Профессиональный (двуголосый, закадровый) Премьер Мультимедиа
- Авторский (одноголосый, закадровый) Гаврилов Андрей Юрьевич

О фильме: В Нью-Мексико по-прежнему властвуют законы пограничных территорий, а точнее, царит полное беззаконие. Единственный, кто готов сражаться за справедливость — легендарный Билли Кид, безжалостный к врагам и не знающий, что такое промах.
Вместе с новым приятелем Дэйвом Билли вытаскивает из тюрьмы оставшихся в живых друзей: Дока и Чавеса. Слава о подвигах парней вновь гремит на всю Америку.
Тогда местные власти и богачи назначают за их головы щедрую награду, но Билли и его друзей не так то просто загнать в угол…



Кодек: x264
Качество: WEBRip 1080p
Видео: 1920x1080, 12600 kbps, 23,976 fps
Аудио #1: AC-3, 2 ch, 192 kbps (Rus) - DVO SDI Media
Аудио #2: AC-3, 2 ch, 192 kbps (Rus) - DVO Екатеринбург-Арт
Аудио #3: AC-3, 2 ch, 192 kbps (Rus) - DVO Премьер Мультимедиа
Аудио #4: AC-3, 2 ch, 192 kbps (Rus) - AVO Гаврилов Андрей Юрьевич
Аудио #5: AC-3, 6 ch, 640 kbps (Eng)
Субтитры: английские

Общее
Уникальный идентификатор : 191139250335560572149423501779721962612 (0x8FCC14A0B0077E9FA31BBAF218C6C474)
Полное имя : Молодые стрелки 2 (Young Guns II) 1990 WEBRip 1080p.mkv
Формат : Matroska
Версия формата : Version 2
Размер файла : 10,4 Гбайт
Продолжительность : 1 ч. 44 м.
Режим общего битрейта : Переменный
Общий поток : 14,3 Мбит/сек
Дата кодирования : UTC 2017-11-09 03:41:43
Программа кодирования : mkvmerge v4.0.0 ('The Stars were mine') сборка от Jun 6 2010 16:18:42
Библиотека кодирования : libebml v1.0.0 + libmatroska v1.0.0

Видео
Идентификатор : 1
Формат : AVC
Формат/Информация : Advanced Video Codec
Профиль формата : High@L4
Параметр CABAC формата : Да
Параметр ReFrames формата : 4 кадра
Идентификатор кодека : V_MPEG4/ISO/AVC
Продолжительность : 1 ч. 44 м.
Вид битрейта : Переменный
Битрейт : 12,6 Мбит/сек
Максимальный битрейт : 15,0 Мбит/сек
Ширина : 1920 пикселей
Высота : 1080 пикселей
Соотношение сторон : 16:9
Режим частоты кадров : Постоянный
Частота кадров : 23,976 (24000/1001) кадра/сек
Цветовое пространство : YUV
Субдискретизация насыщенности : 4:2:0
Битовая глубина : 8 бит
Тип развёртки : Прогрессивная
Бит/(Пиксели*Кадры) : 0.252
Размер потока : 9,12 Гбайт (88%)
Библиотека кодирования : x264 core 148 r2623 d5b2374
Настройки программы : cabac=1 / ref=4 / deblock=1:-1:-1 / analyse=0x3:0x133 / me=umh / subme=9 / psy=1 / psy_rd=1.00:0.15 / mixed_ref=1 / me_range=24 / chroma_me=1 / trellis=2 / 8x8dct=1 / cqm=0 / deadzone=21,11 / fast_pskip=1 / chroma_qp_offset=-3 / threads=34 / lookahead_threads=5 / sliced_threads=0 / nr=150 / decimate=1 / interlaced=0 / bluray_compat=0 / constrained_intra=0 / bframes=8 / b_pyramid=2 / b_adapt=2 / b_bias=0 / direct=3 / weightb=1 / open_gop=0 / weightp=2 / keyint=120 / keyint_min=61 / scenecut=0 / intra_refresh=0 / rc_lookahead=120 / rc=crf / mbtree=1 / crf=18.0 / qcomp=0.60 / qpmin=0 / qpmax=69 / qpstep=4 / vbv_maxrate=15000 / vbv_bufsize=31250 / crf_max=0.0 / nal_hrd=vbr / filler=0 / ip_ratio=1.40 / aq=3:1.00
Язык : English
Default : Нет
Forced : Нет
Цветовой диапазон : Limited
Основные цвета : BT.709
Характеристики трансфера : BT.709
Коэффициенты матрицы : BT.709

Аудио #1
Идентификатор : 2
Формат : AC-3
Формат/Информация : Audio Coding 3
Расширение режима : CM (complete main)
Параметр Endianness формата : Big
Идентификатор кодека : A_AC3
Продолжительность : 1 ч. 44 м.
Вид битрейта : Постоянный
Битрейт : 192 Кбит/сек
Каналы : 2 канала
Расположение каналов : Front: L R
Частота : 48,0 КГц
Частота кадров : 31,250 кадров/сек (1536 spf)
Метод сжатия : С потерями
Размер потока : 143 Мбайт (1%)
Заголовок : DVO SDI Media
Язык : Russian
Default : Нет
Forced : Нет

Аудио #2
Идентификатор : 3
Формат : AC-3
Формат/Информация : Audio Coding 3
Расширение режима : CM (complete main)
Параметр Endianness формата : Big
Идентификатор кодека : A_AC3
Продолжительность : 1 ч. 44 м.
Вид битрейта : Постоянный
Битрейт : 224 Кбит/сек
Каналы : 2 канала
Расположение каналов : Front: L R
Частота : 48,0 КГц
Частота кадров : 31,250 кадров/сек (1536 spf)
Метод сжатия : С потерями
Размер потока : 167 Мбайт (2%)
Заголовок : DVO Екатеринбург-Арт
Язык : Russian
Default : Нет
Forced : Нет

Аудио #3
Идентификатор : 4
Формат : AC-3
Формат/Информация : Audio Coding 3
Расширение режима : CM (complete main)
Параметр Endianness формата : Big
Идентификатор кодека : A_AC3
Продолжительность : 1 ч. 44 м.
Вид битрейта : Постоянный
Битрейт : 192 Кбит/сек
Каналы : 2 канала
Расположение каналов : Front: L R
Частота : 48,0 КГц
Частота кадров : 31,250 кадров/сек (1536 spf)
Метод сжатия : С потерями
Размер потока : 143 Мбайт (1%)
Заголовок : DVO Премьер Мультимедиа
Язык : Russian
Default : Нет
Forced : Нет

Аудио #4
Идентификатор : 5
Формат : AC-3
Формат/Информация : Audio Coding 3
Расширение режима : CM (complete main)
Параметр Endianness формата : Big
Идентификатор кодека : A_AC3
Продолжительность : 1 ч. 44 м.
Вид битрейта : Постоянный
Битрейт : 192 Кбит/сек
Каналы : 2 канала
Расположение каналов : Front: L R
Частота : 48,0 КГц
Частота кадров : 31,250 кадров/сек (1536 spf)
Метод сжатия : С потерями
Размер потока : 143 Мбайт (1%)
Заголовок : AVO Гаврилов Андрей Юрьевич
Язык : Russian
Default : Нет
Forced : Нет

Аудио #5
Идентификатор : 6
Формат : AC-3
Формат/Информация : Audio Coding 3
Расширение режима : CM (complete main)
Параметр Endianness формата : Big
Идентификатор кодека : A_AC3
Продолжительность : 1 ч. 44 м.
Вид битрейта : Постоянный
Битрейт : 640 Кбит/сек
Каналы : 6 каналов
Расположение каналов : Front: L C R, Side: L R, LFE
Частота : 48,0 КГц
Частота кадров : 31,250 кадров/сек (1536 spf)
Метод сжатия : С потерями
Размер потока : 476 Мбайт (4%)
Язык : English
Default : Нет
Forced : Нет

Текст
Идентификатор : 7
Формат : UTF-8
Идентификатор кодека : S_TEXT/UTF8
Идентификатор кодека/Информация : UTF-8 Plain Text
Язык : English
Default : Нет
Forced : Нет



_________________
Проголосуй за трекер Открытый торрент трекер - RUS-MEDIA.ORG

Проголосуй Открытый торрент трекер - RUS-MEDIA.ORG


Вернуться к началу
 Профиль Отправить личное сообщение  
 
   Похожие торренты   Автор   Торрент   Размер 
В этой теме нет новых непрочитанных сообщений. Молодые стрелки 2 / Young Guns II [Вестерн, Боевик, 1990] HDTVRip-AVC, Mvo

salma3

12 | 5

2.44 ГБ

В этой теме нет новых непрочитанных сообщений. Молодые стрелки / Young Guns [Боевик, Триллер, Вестерн, Криминал, 1988] Blu-ray 1080p, Dvo+Sub

salma3

1 | 1

21.58 ГБ

В этой теме нет новых непрочитанных сообщений. Молодые стрелки / Young Guns [Боевик, Триллер, Вестерн, Криминал, 1988] HDRip-AVC, Dvo

salma3

19 | 2

2.74 ГБ

В этой теме нет новых непрочитанных сообщений. Молодые стрелки / Young Guns [Боевик, Триллер, Вестерн, Криминал, 1988] BDRip 720p, Dvo+Avo

salma3

0 | 0

5.18 ГБ

В этой теме нет новых непрочитанных сообщений. Молодые и красивые 3 / Young and Beautiful 3 (2017) WEBRip

salma3

234 | 109

2.48 ГБ

В этой теме нет новых непрочитанных сообщений. Молодые и гламурные 9 / Young and Glamorous 9 (2017) WEBRip

salma3

63 | 62

2.03 ГБ

В этой теме нет новых непрочитанных сообщений. Молодые и сисястые / Young and Busty (2017) WEBRip

salma3

130 | 19

1.46 ГБ


Начать новую тему Ответить на тему  [ 1 сообщение ] 




Для Мосгорсуда, Роскомнадзора и рекламодателей:: mosgorsud-torrent[собачка]yandex.ru
cron