Торрент файл
скачать торрент магнет ссылка Добавлен: 07 ноя 2017, 16:50
Размер: 21.47 ГБ
Сидеров: 5
Личеров: 12
Статус: (salma3)
Автор

СообщениеДобавлено: 07 ноя 2017, 16:50 

Не в сети
Супермодератор
Аватара пользователя
Дата регистрации:
15 фев 2012, 16:44
Возраст: 28
Спасибо: 6644 / 2146
Сообщения: 45958
Жанр: криминал, драма, триллер
Год выпуска: 1999
Продолжительность: 01:44:57
Страна: Япония
Перевод: Профессиональный (многоголосый закадровый) Интерсинема-Арт
Субтитры: английские

Режиссер: Такаши Миике / Takashi Miike

В ролях: Рики Такэути, Сё Аикава, Рэндзи Исибаси, Хитоси Одзава, Синго Цуруми, Каору Сугита, Данкан, Хиротаро Хонда, Митисукэ Касивая, Мидзухо Кога, Рюси Мидзуками, Токитоси Сиота, Томорово Тагути, Сусуму Тэрадзима, Хуа Ронвэн, Кёсукэ Ябэ и др.

Описание: Банда Рюичи стремится обрести свое место под солнцем: грабит банки, устраивает разборки с китайскими и японскими гангстерами, пытается взять под контроль пригороды Токио и поставку наркотиков с Тайваня.



Тип релиза: BDRemux 1080p
Контейнер: MKV
Видео: AVC / 1920x1080 / 16:9 / 23.976 fps / 26932 Kbps / High@L4.1
Аудио 1 Rus: AC3 / 48.0 KHz / 2.0 / 192 kbps / MVO / Интерсинема-Арт
Аудио 2 Jap: DTS-HD MA / 48.0 KHz / 2.0 / 1831 kbps / Original
Аудио 3 Eng: AC3 / 48.0 KHz / 2.0 / 320 kbps / Commentary by Miike biographer Tom Mes
Формат субтитров: softsub (SRT)

Format : Matroska
Format version : Version 4 / Version 2
File size : 21.5 GiB
Duration : 1 h 44 min
Overall bit rate mode : Variable
Overall bit rate : 29.3 Mb/s
Movie name : Dead.or.Alive.1999.BDRemux.1080p-porvaliparus
Encoded date : UTC 2017-11-04 06:53:37
Writing application : mkvmerge v17.0.0 ('Be Ur Friend') 64-bit
Writing library : libebml v1.3.5 + libmatroska v1.4.8

Video
ID : 1
Format : AVC
Format/Info : Advanced Video Codec
Format profile : High@L4.1
Format settings, CABAC : Yes
Format settings, RefFrames : 3 frames
Codec ID : V_MPEG4/ISO/AVC
Duration : 1 h 44 min
Bit rate mode : Variable
Bit rate : 27.0 Mb/s
Maximum bit rate : 38.0 Mb/s
Width : 1 920 pixels
Height : 1 080 pixels
Display aspect ratio : 16:9
Frame rate mode : Constant
Frame rate : 23.976 (24000/1001) FPS
Color space : YUV
Chroma subsampling : 4:2:0
Bit depth : 8 bits
Scan type : Progressive
Bits/(Pixel*Frame) : 0.543
Stream size : 19.7 GiB (92%)
Title : Dead.or.Alive.1999.BDRemux.1080p
Writing library : x264 core 148 r2638 7599210
Encoding settings : cabac=1 / ref=4 / deblock=1:0:0 / analyse=0x3:0x133 / me=umh / subme=10 / psy=1 / psy_rd=1.00:0.00 / mixed_ref=1 / me_range=24 / chroma_me=1 / trellis=2 / 8x8dct=1 / cqm=0 / deadzone=21,11 / fast_pskip=1 / chroma_qp_offset=-5 / threads=12 / lookahead_threads=1 / sliced_threads=0 / slices=4 / nr=0 / decimate=1 / interlaced=0 / bluray_compat=1 / stitchable=1 / constrained_intra=0 / bframes=3 / b_pyramid=1 / b_adapt=2 / b_bias=0 / direct=3 / weightb=1 / open_gop=1 / weightp=1 / keyint=24 / keyint_min=1 / scenecut=40 / intra_refresh=0 / rc_lookahead=24 / rc=2pass / mbtree=1 / bitrate=27000 / ratetol=0.1 / qcomp=0.00 / qpmin=0 / qpmax=69 / qpstep=4 / cplxblur=20.0 / qblur=0.5 / vbv_maxrate=38000 / vbv_bufsize=30000 / nal_hrd=vbr / filler=0 / ip_ratio=1.40 / aq=1:1.00
Default : Yes
Forced : No
Color range : Limited
Color primaries : BT.709
Transfer characteristics : BT.709
Matrix coefficients : BT.709

Audio #1
ID : 2
Format : AC-3
Format/Info : Audio Coding 3
Format settings, Endianness : Big
Codec ID : A_AC3
Duration : 1 h 44 min
Bit rate mode : Constant
Bit rate : 192 kb/s
Channel(s) : 2 channels
Channel positions : Front: L R
Sampling rate : 48.0 kHz
Frame rate : 31.250 FPS (1536 SPF)
Bit depth : 16 bits
Compression mode : Lossy
Stream size : 144 MiB (1%)
Title : MVO
Language : Russian
Service kind : Complete Main
Default : Yes
Forced : No

Audio #2
ID : 3
Format : DTS
Format/Info : Digital Theater Systems
Format profile : MA / Core
Mode : 16
Format settings, Endianness : Big
Codec ID : A_DTS
Duration : 1 h 44 min
Bit rate mode : Variable / Constant
Bit rate : 1 831 kb/s / 1 509 kb/s
Channel(s) : 2 channels
Channel positions : Front: L R
Sampling rate : 48.0 kHz
Frame rate : 93.750 FPS (512 SPF)
Bit depth : 24 bits
Compression mode : Lossless / Lossy
Stream size : 1.34 GiB (6%)
Language : Japanese
Default : No
Forced : No

Audio #3
ID : 4
Format : AC-3
Format/Info : Audio Coding 3
Format settings, Endianness : Big
Codec ID : A_AC3
Duration : 1 h 44 min
Bit rate mode : Constant
Bit rate : 320 kb/s
Channel(s) : 2 channels
Channel positions : Front: L R
Sampling rate : 48.0 kHz
Frame rate : 31.250 FPS (1536 SPF)
Bit depth : 16 bits
Compression mode : Lossy
Stream size : 240 MiB (1%)
Title : Commentary by Miike biographer Tom Mes
Language : English
Service kind : Complete Main
Default : No
Forced : No

Text
ID : 5
Format : UTF-8
Codec ID : S_TEXT/UTF8
Codec ID/Info : UTF-8 Plain Text
Duration : 1 h 44 min
Bit rate : 20 b/s
Count of elements : 626
Stream size : 15.4 KiB (0%)
Language : English
Default : No
Forced : No

Menu
00:00:00.000 : en:Chapter 1
00:05:47.514 : en:Chapter 2
00:14:15.438 : en:Chapter 3
00:22:21.215 : en:Chapter 4
00:33:32.010 : en:Chapter 5
00:44:30.042 : en:Chapter 6
00:53:32.209 : en:Chapter 7
01:03:00.694 : en:Chapter 8
01:11:50.765 : en:Chapter 9
01:21:30.385 : en:Chapter 10
01:30:23.126 : en:Chapter 11
01:37:47.653 : en:Chapter 12


_________________
Проголосуй за трекер Открытый торрент трекер - RUS-MEDIA.ORG

Проголосуй Открытый торрент трекер - RUS-MEDIA.ORG



реклама партнёра


Вернуться к началу
 Профиль Отправить личное сообщение  
 
   Похожие торренты   Автор   Торрент   Размер 
В этой теме нет новых непрочитанных сообщений. Живым или мертвым / Dead or Alive: Hanzaisha [боевик, триллер, драма, 1999] BDRip, Mvo

salma3

19 | 8

1.45 ГБ

В этой теме нет новых непрочитанных сообщений. Взять живым или мертвым / Wanted: Dead or Alive [боевик, триллер, драма, криминал, 1987] BDRip 1080p, Mvo

salma3

59 | 14

10.82 ГБ

В этой теме нет новых непрочитанных сообщений. Взять живым или мертвым / Wanted: Dead or Alive [боевик, триллер, драма, 1987] BDRip, Mvo

salma3

66 | 30

1.45 ГБ

В этой теме нет новых непрочитанных сообщений. Взять живым или мертвым / Wanted: Dead or Alive [боевик, триллер, драма, 1987] BDRip, Mvo

salma3

65 | 30

2.18 ГБ

В этой теме нет новых непрочитанных сообщений. Взять живым или мертвым / Wanted: Dead or Alive [боевик, триллер, драма, 1987] BDRip 720p, Mvo

salma3

34 | 8

4.36 ГБ

В этой теме нет новых непрочитанных сообщений. Живой или Мертвый / DOA: Dead or Alive [Боевик, приключения, 2006] BDRemux 1080p, Dub

salma3

60 | 33

12.37 ГБ

В этой теме нет новых непрочитанных сообщений. Совсем мало времени / Am zin [боевик, триллер, драма, криминал, 1999] BDRemux 1080p, Avo

salma3

2 | 2

20.78 ГБ


Начать новую тему Ответить на тему  [ 1 сообщение ] 




Для Мосгорсуда, Роскомнадзора и рекламодателей:: mosgorsud-torrent[собачка]yandex.ru