Торрент файл
скачать торрент магнет ссылка Добавлен: 04 ноя 2017, 22:12
Размер: 9.78 ГБ
Сидеров: 1
Личеров: 1
Статус: (salma3)
Автор

СообщениеДобавлено: 04 ноя 2017, 22:12 

В сети
Супермодератор
Аватара пользователя
Дата регистрации:
15 фев 2012, 16:44
Возраст: 28
Спасибо: 7290 / 2147
Сообщения: 70611
Год выпуска: 1966
Жанр: драма, комедия
Выпущено: Великобритания, Lewis Gilbert, Sheldrake Films
Продолжительность: 01:53:57
Перевод: Профессиональный многоголосый
Режиссер: Льюис Гилберт

В ролях: Майкл Кейн, Шелли Уинтерс, Милисент Мартин, Джулия Фостер, Джейн Эшер, Ширли Энн Филд, Вивьен Мерчант, Элинор Брон, Денхолм Эллиот, Элфи Бэсс


О фильме:
Элфи — персонаж, олицетворяющий очаровательную посредственность. Молодой шофер лимузина Элфи двигается по жизни как бабочка, перелетающая с одного цветка на другой. Цветы его жизни — женщины, и он делает это не бездумно, уверенный, что святое дело мужчины — обладать как можно большим количеством женщин




Файл
Качество: WEB-DL 1080p
Видео: MPEG-4 AVC, 11400 Кбит/с, 1920x1080, 23.976 кадр/с
Аудио 1: Russian: 48 kHz, AC3, 2 ch, 224 kbps |MVO, R5|
Аудио 2: English: 48 kHz, AC3, 6 ch, 640 kbps |Оригинал|
Субтитры: Английские

Релиз от:

• Исходник видео WEB-DL Amazon
Оскар, 1967 год
Номинации
• Лучший фильм
• Лучшая мужская роль (Майкл Кейн)
• Лучшая женская роль второго плана (Вивьен Мерчант)
• Лучший адаптированный сценарий
• Лучшая песня (Alfie)

Золотой глобус, 1967 год
Награды
• Лучший иностранный фильм на английском языке

Номинации
• Лучшая мужская роль (драма) (Майкл Кейн)
• Лучший режиссер (Льюис Гилберт)
• Лучшая женская роль второго плана (Вивьен Мерчант)
• Лучшая женская роль второго плана (Шелли Уинтерс)
• Лучший сценарий
• Лучшая песня — «Alfie»

Британская академия, 1967 год
Награды
• Самый многообещающий новичок (Вивьент Мерчант)

Номинации
• Лучший британский актер (Майкл Кейн)
• Лучший сценарий британского фильма
• Лучшая работа оператора (цветные фильмы)
• Лучший монтаж британского фильма
• Лучший британский фильм

Каннский кинофестиваль, 1966 год
Награды
• Особый приз жюри

Номинации
• Золотая пальмовая ветвь

Общее
Уникальный идентификатор : 200980321623038029901531053703184780109 (0x973366E727911C5FB417FD3EA0100B4D)
Полное имя : Alfie (1966) WEB-DL 1080p -BLUEBIRD.mkv
Формат : Matroska
Версия формата : Version 4 / Version 2
Размер файла : 9,78 Гбайт
Продолжительность : 1 ч. 53 м.
Режим общего битрейта : Переменный
Общий поток : 12,3 Мбит/сек
Дата кодирования : UTC 2016-09-03 05:39:54
Программа кодирования : mkvmerge v9.3.1 ('Mask Machine') 64bit
Библиотека кодирования : libebml v1.3.4 + libmatroska v1.4.5
Обложка : Yes
Attachments : cover.jpg

Видео
Идентификатор : 1
Формат : AVC
Формат/Информация : Advanced Video Codec
Профиль формата : High@L4
Параметр CABAC формата : Да
Параметр RefFrames формата : 4 кадра
Идентификатор кодека : V_MPEG4/ISO/AVC
Продолжительность : 1 ч. 53 м.
Вид битрейта : Переменный
Битрейт : 11,4 Мбит/сек
Максимальный битрейт : 15,0 Мбит/сек
Ширина : 1920 пикселей
Высота : 1080 пикселей
Соотношение сторон : 16:9
Режим частоты кадров : Постоянный
Частота кадров : 23,976 (24000/1001) кадра/сек
Цветовое пространство : YUV
Субдискретизация насыщенности : 4:2:0
Битовая глубина : 8 бит
Тип развёртки : Прогрессивная
Бит/(Пиксели*Кадры) : 0.230
Размер потока : 9,09 Гбайт (93%)
Библиотека кодирования : x264 core 148 r2623 d5b2374
Настройки программы : cabac=1 / ref=4 / deblock=1:-1:-1 / analyse=0x3:0x133 / me=umh / subme=9 / psy=1 / psy_rd=1.00:0.15 / mixed_ref=1 / me_range=24 / chroma_me=1 / trellis=2 / 8x8dct=1 / cqm=0 / deadzone=21,11 / fast_pskip=1 / chroma_qp_offset=-3 / threads=34 / lookahead_threads=5 / sliced_threads=0 / nr=150 / decimate=1 / interlaced=0 / bluray_compat=0 / constrained_intra=0 / bframes=8 / b_pyramid=2 / b_adapt=2 / b_bias=0 / direct=3 / weightb=1 / open_gop=0 / weightp=2 / keyint=120 / keyint_min=61 / scenecut=0 / intra_refresh=0 / rc_lookahead=120 / rc=crf / mbtree=1 / crf=18.0 / qcomp=0.60 / qpmin=0 / qpmax=69 / qpstep=4 / vbv_maxrate=15000 / vbv_bufsize=31250 / crf_max=0.0 / nal_hrd=vbr / filler=0 / ip_ratio=1.40 / aq=3:1.00
Язык : English
Default : Да
Forced : Нет
Цветовой диапазон : Limited
Основные цвета : BT.709
Характеристики трансфера : BT.709
Коэффициенты матрицы : BT.709

Аудио #1
Идентификатор : 2
Формат : AC-3
Формат/Информация : Audio Coding 3
Параметр Endianness формата : Big
Идентификатор кодека : A_AC3
Продолжительность : 1 ч. 53 м.
Вид битрейта : Постоянный
Битрейт : 224 Кбит/сек
Каналы : 2 канала
Расположение каналов : Front: L R
Частота : 48,0 КГц
Частота кадров : 31,250 кадров/сек (1536 SPF)
Битовая глубина : 16 бит
Метод сжатия : С потерями
Размер потока : 183 Мбайт (2%)
Заголовок : MVO
Язык : Russian
Default : Да
Forced : Нет

Аудио #2
Идентификатор : 3
Формат : E-AC-3
Формат/Информация : Enhanced Audio Coding 3
Параметр Endianness формата : Big
Идентификатор кодека : A_EAC3
Продолжительность : 1 ч. 53 м.
Вид битрейта : Постоянный
Битрейт : 640 Кбит/сек
Каналы : 6 каналов
Расположение каналов : Front: L C R, Side: L R, LFE
Частота : 48,0 КГц
Частота кадров : 187,500 кадров/сек (256 SPF)
Метод сжатия : С потерями
Размер потока : 522 Мбайт (5%)
Язык : English
Default : Нет
Forced : Нет

Текст #1
Идентификатор : 4
Формат : UTF-8
Идентификатор кодека : S_TEXT/UTF8
Идентификатор кодека/Информация : UTF-8 Plain Text
Продолжительность : 1 ч. 52 м.
Битрейт : 71 бит/сек
ElementCount : 2226
Размер потока : 58,8 Кбайт (0%)
Язык : English
Default : Нет
Forced : Нет

Текст #2
Идентификатор : 5
Формат : UTF-8
Идентификатор кодека : S_TEXT/UTF8
Идентификатор кодека/Информация : UTF-8 Plain Text
Продолжительность : 1 ч. 52 м.
Битрейт : 72 бит/сек
ElementCount : 2258
Размер потока : 59,3 Кбайт (0%)
Заголовок : SDH
Язык : English
Default : Нет
Forced : Нет


_________________
Проголосуй за трекер Открытый торрент трекер - RUS-MEDIA.ORG

Проголосуй Открытый торрент трекер - RUS-MEDIA.ORG


Вернуться к началу
 Профиль Отправить личное сообщение  
 
   Похожие торренты   Автор   Торрент   Размер 
В этой теме нет новых непрочитанных сообщений. С завязанными глазами / Blindfold [Триллер, мелодрама, комедия, 1966] BDRip 1080p, Avo

salma3

9 | 7

10.35 ГБ

В этой теме нет новых непрочитанных сообщений. Фараон / Faraon [драма, 1966] BDRemux 1080p, Dub

salma3

0 | 0

39.37 ГБ

В этой теме нет новых непрочитанных сообщений. Берегись автомобиля [Мелодрама, комедия, криминал, 1966] BDRemux 1080p [Цветная версия]

salma3

0 | 0

13.97 ГБ

В этой теме нет новых непрочитанных сообщений. Харпер / Harper [боевик, триллер, драма, 1966] WEB-DL 1080p, Mvo

salma3

0 | 0

8.95 ГБ

В этой теме нет новых непрочитанных сообщений. Погоня / The Chase [Триллер, драма, криминал, 1966] BDRemux 1080p, Dub

salma3

0 | 0

35.86 ГБ

В этой теме нет новых непрочитанных сообщений. Фотоувеличение / Blowup [триллер, драма, детектив, 1966] BDRip 1080p, Mvo+Dvo+Avo+Sub

salma3

49 | 9

8.55 ГБ

В этой теме нет новых непрочитанных сообщений. Меморандум Квиллера / The Quiller Memorandum [Триллер, драма, криминал, 1966] BDRip 1080p, Mvo

salma3

27 | 7

13.45 ГБ


Начать новую тему Ответить на тему  [ 1 сообщение ] 




Для Мосгорсуда, Роскомнадзора и рекламодателей:: mosgorsud-torrent[собачка]yandex.ru
cron