Торрент файл
скачать торрент магнет ссылка Добавлен: 04 ноя 2017, 22:08
Размер: 6.9 ГБ
Сидеров: 4
Личеров: 6
Статус: (salma3)
Автор

СообщениеДобавлено: 04 ноя 2017, 22:08 

Не в сети
Супермодератор
Аватара пользователя
Дата регистрации:
15 фев 2012, 16:44
Возраст: 28
Спасибо: 6642 / 2146
Сообщения: 45664
Год выпуска: 1990
Жанр: боевик, триллер, драма
Выпущено: США
Продолжительность: 01:33:19
Перевод: Дублированный, профессиональный многоголосый, профессиональный двухголосый, авторский одноголосый, любительский одноголосый
Режиссер: Дуайт Х. Литтл

В ролях: Стивен Сигал, Бейзил Уоллес, Кит Дэвид, Том Райт, Джоанна Пакула, Элизабет Грэйсен, Бетти Форд, Даниэль Харрис, Эл Израэл, Арлен Дин Снайдер


О фильме:
После смерти напарника Джон Хэтчер, специальный агент отдела по борьбе с наркотиками, решает подать в отставку. Переехав к своей сестре в Чикаго, Хэтчер намеревается вести тихое и размеренное существование. Но этому не суждено было сбыться. На пути у бывшего полицейского встает ямайская наркомафия во главе со своим жутким главарем по прозвищу Зомби. Хэтчер оказывается втянутым в кровавые разборки.




Файл
Качество: BDRip 720p
Видео: 1280x542 (2.35:1), 6671 Kbps, 23.976 fps, High@L4.1, 0.401 bit/pixel
Аудио 1: Russian: 48 kHz, AC3, 6 ch, 448 kbps |MVO, Blu-ray CEE|
Аудио 2: Russian: 48 kHz, AC3, 2 ch, 224 kbps |DUB, Хлопушка|
Аудио 3: Russian: 48 kHz, AC3, 2 ch, 224 kbps |DVO, НТВ|
Аудио 4: Russian: 48 kHz, AC3, 2 ch, 224 kbps |DVO, Рен-ТВ|
Аудио 5: Russian: 48 kHz, AC3, 2 ch, 192 kbps |DVO, Премьер Видео|
Аудио 6: Russian: 48 kHz, AC3, 6 ch, 448 kbps |AVO, А. Михалёв|
Аудио 7: Russian: 48 kHz, AC3, 6 ch, 448 kbps |AVO, А. Гаврилов|
Аудио 8: Russian: 48 kHz, AC3, 2 ch, 224 kbps |VO, Никитин|
Аудио 9: Russian: 48 kHz, AC3, 2 ch, 192 kbps |VO, П. Прямостанов|
Аудио 10: Ukrainian: 48 kHz, AC3, 6 ch, 448 kbps |DVO, 1+1|
Аудио 11: English: 48 kHz, AC3, 6 ch, 640 kbps |Оригинал|
Cубтитры: Русские, украинские, английские
Навигация по главам: есть

Релиз от:



Общее
Уникальный идентификатор : 174945814402486942803033594992479956781 (0x839D56983A0D70CD9B67F47C6E6BEF2D)
Полное имя : Marked.for.Death.1990.720p.BluRay.6xRus.Ukr.Eng.mkv
Формат : Matroska
Версия формата : Version 2
Размер файла : 6,90 Гбайт
Продолжительность : 1 ч. 33 м.
Общий поток : 10,6 Мбит/сек
Название фильма : Marked for Death (1990) - Release for HDCLUB by Skazhutin
Дата кодирования : UTC 2013-07-20 21:25:06
Программа кодирования : mkvmerge v5.7.0 ('The Whirlwind') built on Jul 29 2012 15:12:35
Библиотека кодирования : libebml v1.2.3 + libmatroska v1.3.0
Обложка : Yes
Attachments : cover.jpg / xlog.txt

Видео
Идентификатор : 1
Формат : AVC
Формат/Информация : Advanced Video Codec
Профиль формата : High@L4.1
Параметр CABAC формата : Да
Параметр RefFrames формата : 12 кадров
Идентификатор кодека : V_MPEG4/ISO/AVC
Продолжительность : 1 ч. 33 м.
Битрейт : 6671 Кбит/сек
Ширина : 1280 пикселей
Высота : 542 пикселя
Соотношение сторон : 2,35:1
Режим частоты кадров : Постоянный
Частота кадров : 23,976 (24000/1001) кадра/сек
Цветовое пространство : YUV
Субдискретизация насыщенности : 4:2:0
Битовая глубина : 8 бит
Тип развёртки : Прогрессивная
Бит/(Пиксели*Кадры) : 0.401
Размер потока : 4,35 Гбайт (63%)
Заголовок : Release for HDCLUB
Библиотека кодирования : x264 core 130 r2273kMod b3065e6
Настройки программы : cabac=1 / ref=12 / deblock=1:-3:-3 / analyse=0x3:0x113 / me=umh / subme=11 / psy=1 / fade_compensate=0.00 / psy_rd=1.00:0.00 / mixed_ref=1 / me_range=48 / chroma_me=1 / trellis=2 / 8x8dct=1 / cqm=0 / deadzone=21,11 / fast_pskip=1 / chroma_qp_offset=-2 / threads=12 / lookahead_threads=3 / sliced_threads=0 / nr=0 / decimate=1 / interlaced=0 / bluray_compat=0 / constrained_intra=0 / bframes=12 / b_pyramid=2 / b_adapt=2 / b_bias=0 / direct=3 / weightb=1 / open_gop=0 / weightp=2 / keyint=250 / keyint_min=23 / scenecut=40 / intra_refresh=0 / rc_lookahead=40 / rc=crf / mbtree=0 / crf=17.0000 / qcomp=0.60 / qpmin=0 / qpmax=69 / qpstep=4 / vbv_maxrate=50000 / vbv_bufsize=62500 / crf_max=0.0 / nal_hrd=none / ip_ratio=1.40 / pb_ratio=1.30 / aq=1:0.80
Язык : English
Default : Да
Forced : Нет
Цветовой диапазон : Limited
Коэффициенты матрицы : BT.709

Аудио #1
Идентификатор : 2
Формат : AC-3
Формат/Информация : Audio Coding 3
Параметр Endianness формата : Big
Идентификатор кодека : A_AC3
Продолжительность : 1 ч. 33 м.
Вид битрейта : Постоянный
Битрейт : 448 Кбит/сек
Каналы : 6 каналов
Расположение каналов : Front: L C R, Side: L R, LFE
Частота : 48,0 КГц
Частота кадров : 31,250 кадров/сек (1536 SPF)
Битовая глубина : 16 бит
Метод сжатия : С потерями
Размер потока : 299 Мбайт (4%)
Заголовок : AC3 5.1 @ 448 kbps - MVO, Blu-ray CEE
Язык : Russian
Default : Да
Forced : Нет

Аудио #2
Идентификатор : 3
Формат : AC-3
Формат/Информация : Audio Coding 3
Параметр Endianness формата : Big
Идентификатор кодека : A_AC3
Продолжительность : 1 ч. 33 м.
Вид битрейта : Постоянный
Битрейт : 224 Кбит/сек
Каналы : 2 канала
Расположение каналов : Front: L R
Частота : 48,0 КГц
Частота кадров : 31,250 кадров/сек (1536 SPF)
Битовая глубина : 16 бит
Метод сжатия : С потерями
Размер потока : 150 Мбайт (2%)
Заголовок : Dub (Хлопушка)
Язык : Russian
Default : Нет
Forced : Нет

Аудио #3
Идентификатор : 4
Формат : AC-3
Формат/Информация : Audio Coding 3
Параметр Endianness формата : Big
Идентификатор кодека : A_AC3
Продолжительность : 1 ч. 33 м.
Вид битрейта : Постоянный
Битрейт : 224 Кбит/сек
Каналы : 2 канала
Расположение каналов : Front: L R
Частота : 48,0 КГц
Частота кадров : 31,250 кадров/сек (1536 SPF)
Битовая глубина : 16 бит
Метод сжатия : С потерями
Размер потока : 150 Мбайт (2%)
Заголовок : НТВ
Язык : Russian
Default : Нет
Forced : Нет

Аудио #4
Идентификатор : 5
Формат : AC-3
Формат/Информация : Audio Coding 3
Параметр Endianness формата : Big
Идентификатор кодека : A_AC3
Продолжительность : 1 ч. 33 м.
Вид битрейта : Постоянный
Битрейт : 224 Кбит/сек
Каналы : 2 канала
Расположение каналов : Front: L R
Частота : 48,0 КГц
Частота кадров : 31,250 кадров/сек (1536 SPF)
Битовая глубина : 16 бит
Метод сжатия : С потерями
Размер потока : 150 Мбайт (2%)
Заголовок : РЕН-ТВ
Язык : Russian
Default : Нет
Forced : Нет

Аудио #5
Идентификатор : 6
Формат : AC-3
Формат/Информация : Audio Coding 3
Параметр Endianness формата : Big
Идентификатор кодека : A_AC3
Продолжительность : 1 ч. 33 м.
Вид битрейта : Постоянный
Битрейт : 192 Кбит/сек
Каналы : 2 канала
Расположение каналов : Front: L R
Частота : 48,0 КГц
Частота кадров : 31,250 кадров/сек (1536 SPF)
Битовая глубина : 16 бит
Метод сжатия : С потерями
Размер потока : 128 Мбайт (2%)
Заголовок : Премьер Видео Фильм
Язык : Russian
Default : Нет
Forced : Нет

Аудио #6
Идентификатор : 7
Формат : AC-3
Формат/Информация : Audio Coding 3
Параметр Endianness формата : Big
Идентификатор кодека : A_AC3
Продолжительность : 1 ч. 33 м.
Вид битрейта : Постоянный
Битрейт : 448 Кбит/сек
Каналы : 6 каналов
Расположение каналов : Front: L C R, Side: L R, LFE
Частота : 48,0 КГц
Частота кадров : 31,250 кадров/сек (1536 SPF)
Битовая глубина : 16 бит
Метод сжатия : С потерями
Размер потока : 299 Мбайт (4%)
Заголовок : AC3 5.1 @ 448 kbps - VO, Mihalev
Язык : Russian
Default : Нет
Forced : Нет

Аудио #7
Идентификатор : 8
Формат : AC-3
Формат/Информация : Audio Coding 3
Параметр Endianness формата : Big
Идентификатор кодека : A_AC3
Продолжительность : 1 ч. 33 м.
Вид битрейта : Постоянный
Битрейт : 448 Кбит/сек
Каналы : 6 каналов
Расположение каналов : Front: L C R, Side: L R, LFE
Частота : 48,0 КГц
Частота кадров : 31,250 кадров/сек (1536 SPF)
Битовая глубина : 16 бит
Метод сжатия : С потерями
Размер потока : 299 Мбайт (4%)
Заголовок : AC3 5.1 @ 448 kbps - VO, Gavrilov
Язык : Russian
Default : Нет
Forced : Нет

Аудио #8
Идентификатор : 9
Формат : AC-3
Формат/Информация : Audio Coding 3
Параметр Endianness формата : Big
Идентификатор кодека : A_AC3
Продолжительность : 1 ч. 33 м.
Вид битрейта : Постоянный
Битрейт : 224 Кбит/сек
Каналы : 2 канала
Расположение каналов : Front: L R
Частота : 48,0 КГц
Частота кадров : 31,250 кадров/сек (1536 SPF)
Битовая глубина : 16 бит
Метод сжатия : С потерями
Размер потока : 150 Мбайт (2%)
Заголовок : Никитин
Язык : Russian
Default : Нет
Forced : Нет

Аудио #9
Идентификатор : 10
Формат : AC-3
Формат/Информация : Audio Coding 3
Параметр Endianness формата : Big
Идентификатор кодека : A_AC3
Продолжительность : 1 ч. 33 м.
Вид битрейта : Постоянный
Битрейт : 192 Кбит/сек
Каналы : 2 канала
Расположение каналов : Front: L R
Частота : 48,0 КГц
Частота кадров : 31,250 кадров/сек (1536 SPF)
Битовая глубина : 16 бит
Метод сжатия : С потерями
Размер потока : 128 Мбайт (2%)
Заголовок : AC3 2.0 @ 192 kbps - VO, Priamostanov
Язык : Russian
Default : Нет
Forced : Нет

Аудио #10
Идентификатор : 11
Формат : AC-3
Формат/Информация : Audio Coding 3
Параметр Endianness формата : Big
Идентификатор кодека : A_AC3
Продолжительность : 1 ч. 33 м.
Вид битрейта : Постоянный
Битрейт : 448 Кбит/сек
Каналы : 6 каналов
Расположение каналов : Front: L C R, Side: L R, LFE
Частота : 48,0 КГц
Частота кадров : 31,250 кадров/сек (1536 SPF)
Битовая глубина : 16 бит
Метод сжатия : С потерями
Размер потока : 299 Мбайт (4%)
Заголовок : AC3 5.1 @ 448 kbps - DVO, 1+1
Язык : Ukrainian
Default : Нет
Forced : Нет

Аудио #11
Идентификатор : 12
Формат : AC-3
Формат/Информация : Audio Coding 3
Параметр Endianness формата : Big
Идентификатор кодека : A_AC3
Продолжительность : 1 ч. 33 м.
Вид битрейта : Постоянный
Битрейт : 640 Кбит/сек
Каналы : 6 каналов
Расположение каналов : Front: L C R, Side: L R, LFE
Частота : 48,0 КГц
Частота кадров : 31,250 кадров/сек (1536 SPF)
Битовая глубина : 16 бит
Метод сжатия : С потерями
Размер потока : 427 Мбайт (6%)
Заголовок : AC3 5.1 @ 640 kbps
Язык : English
Default : Нет
Forced : Нет

Текст #1
Идентификатор : 13
Формат : UTF-8
Идентификатор кодека : S_TEXT/UTF8
Идентификатор кодека/Информация : UTF-8 Plain Text
Язык : Russian
Default : Нет
Forced : Нет

Текст #2
Идентификатор : 14
Формат : UTF-8
Идентификатор кодека : S_TEXT/UTF8
Идентификатор кодека/Информация : UTF-8 Plain Text
Язык : Ukrainian
Default : Нет
Forced : Нет

Текст #3
Идентификатор : 15
Формат : UTF-8
Идентификатор кодека : S_TEXT/UTF8
Идентификатор кодека/Информация : UTF-8 Plain Text
Язык : English
Default : Нет
Forced : Нет

Меню
00:00:00.000 : en:Death & Drugs (Main Titles)
00:07:52.221 : en:I've Had Enough
00:10:12.028 : en:Uncle John
00:14:02.633 : en:Old Friends
00:16:43.252 : en:Screwface
00:20:19.551 : en:The Curse
00:23:05.258 : en:Blood in the Bar
00:30:57.063 : en:The Posse's Power
00:36:13.504 : en:Death Drives By
00:39:26.363 : en:Looking for Screwface
00:43:00.619 : en:Marked for Death
00:46:50.933 : en:A Message From Screwface
00:50:28.483 : en:Serious Fun
00:59:01.829 : en:The Big Squeeze
01:01:54.877 : en:Ready for War
01:06:10.383 : en:Jamaica
01:11:38.544 : en:An Army of Three
01:18:01.093 : en:The Posse's "Prisoner"
01:20:56.685 : en:Screwface Is Dead
01:26:02.490 : en:Dead Again
01:29:10.762 : en:The Stronger Magic


_________________
Проголосуй за трекер Открытый торрент трекер - RUS-MEDIA.ORG

Проголосуй Открытый торрент трекер - RUS-MEDIA.ORG



реклама партнёра


Вернуться к началу
 Профиль Отправить личное сообщение  
 
   Похожие торренты   Автор   Торрент   Размер 
В этой теме нет новых непрочитанных сообщений. Торговец смертью / Merchant of Death [Боевик, драма, 1997] DVDRip, Dvo

salma3

20 | 3

1.46 ГБ

В этой теме нет новых непрочитанных сообщений. Наперегонки со смертью / Dead Man Running [боевик, триллер, драма, криминал, 2009] BDRip 1080p, Mvo

salma3

17 | 3

7.26 ГБ

В этой теме нет новых непрочитанных сообщений. Сыграй мне перед смертью / Play Misty for Me [триллер, драма, криминал, 1971] BDRip, Dub

salma3

9 | 1

1.45 ГБ

В этой теме нет новых непрочитанных сообщений. Рандеву со смертью / Rendezvous with Death [Боевые искусства, 1980] DVDRip, Avo

salma3

18 | 6

1.46 ГБ

В этой теме нет новых непрочитанных сообщений. Рандеву со смертью / Rendezvous with Death [Боевые искусства, 1980] DVDRip, Avo

salma3

29 | 6

743.35 МБ

В этой теме нет новых непрочитанных сообщений. Между жизнью и смертью / Sehar [Боевик, драма, криминал, 2005] DVDRip, Mvo

salma3

29 | 15

1.36 ГБ

В этой теме нет новых непрочитанных сообщений. Смерти вопреки / Нико-2 / Hard to Kill [боевик, триллер, драма, криминал, 1990] BDRemux 1080p, Dub+Mvo+Mvo+3Avo+Sub

salma3

23 | 10

18.68 ГБ


Начать новую тему Ответить на тему  [ 1 сообщение ] 




Для Мосгорсуда, Роскомнадзора и рекламодателей:: mosgorsud-torrent[собачка]yandex.ru