Торрент файл
скачать торрент магнет ссылка Добавлен: 03 ноя 2017, 22:03
Размер: 7.73 ГБ
Сидеров: 17
Личеров: 4
Статус: (salma3)
Автор

СообщениеДобавлено: 03 ноя 2017, 22:03 

Не в сети
Супермодератор
Аватара пользователя
Дата регистрации:
15 фев 2012, 16:44
Возраст: 28
Спасибо: 7199 / 2147
Сообщения: 64840
Год выхода: 1995
Жанр: драма, мелодрама
Режиссер: Ричард Линклейтер /Richard Linklater/

В ролях: Итан Хоук /Ethan Hawke/, Жюли Дельпи /Julie Delpy/, Андреа Экерт /Andrea Eckert/, Ханно Пёшль /Hanno Pöschl/, Карл Брукшвайгер /Karl Bruckschwaiger/, Текс Рубиновиц /Tex Rubinowitz/, Эрни Мангольд /Erni Mangold/, Доминик Кастелль /Dominik Castell/, Хаймон Мария Буттингер /Haymon Maria Buttinger/, Харольд Вайглайн /Harold Waiglein/

О фильме:
Молодой американец Джесси знакомится в поезде с красивой француженкой Селин. Они сразу находят много общих тем для разговоров, и Джесси уговаривает Селин сойти вместе с ним в Вене, чтобы провести вместе вечер и ночь, так как наутро он должен улететь домой в Штаты. Этой ночью происходит чудо, между мужчиной и женщиной рождается любовь такая сильная, что всё остальное перестаёт иметь значение. Однако неумолимый обратный отсчёт продолжается, до рассвета осталось совсем немного времени, и влюблённые используют каждый драгоценный момент, чтобы узнать друг друга получше, чтобы успеть обменяться всеми своими воспоминаниями, мечтами и нежностью… перед рассветом.



Страна: США, Австрия, Швейцария
Продолжительность: 01:41:05
Перевод: Авторский (однголосый, закадровый) - М.Чадов
Профессиональный (многоголосый, закадровый) - НТВ+
Профессиональный (двухголосый, закадровый)
Авторский (однголосый, закадровый) - Пётр Карцев

Файл
Кодек: x264
Качество: BDRip 720p
Видео:AVC / 1280x688 / 23.976fps / 9700kbps / High@L4.1
Аудио #1: Russian: 48 kHz, AC3, 2/0 (L,R) ch, ~224.00 kbps avg |Одноголосый закадровый, М.Чадов
Аудио #2: Russian: 48 kHz, AC3, 2/0 (L,R) ch, ~192.00 kbps avg |Многоголосый закадровый, НТВ+|
Аудио #3: Russian: 48 kHz, AC3, 2/0 (L,R) ch, ~192.00 kbps avg |Двухголосый закадровый|
Аудио #4: Russian: 48 kHz, AC3, 2/0 (L,R) ch, ~192.00 kbps avg |Одноголосый закадровый, Пётр Карцев|
Аудио #5: English: 48 kHz, AC3, 2/0 (L,R) ch, ~192.00 kbps avg |Оригинал|
Субтитры: Russian (Full), English (Full)


MediaInfo
Общее
Уникальный идентификатор : 183152857041890485807910743245346040346 (0x89C9F509991C1492B3BFF7CE97CBEA1A)
Полное имя : D:rutrackerBefore.Criterion.CollectionBeforeSunrise1995Before.Sunrise.1995.BDRip.720p.4xRus.Eng.mkv
Формат : Matroska
Версия формата : Version 4 / Version 2
Размер файла : 7,73 Гбайт
Продолжительность : 1 ч. 41 м.
Общий поток : 10,9 Мбит/сек
Название фильма : Before Sunrise (1995)
Дата кодирования : UTC 2017-10-27 12:42:50
Программа кодирования : mkvmerge v16.0.0 ('Protest') 64-bit
Библиотека кодирования : libebml v1.3.5 + libmatroska v1.4.8

Видео
Идентификатор : 1
Формат : AVC
Формат/Информация : Advanced Video Codec
Профиль формата : High@L4.1
Параметр CABAC формата : Да
Параметр RefFrames формата : 9 кадров
Идентификатор кодека : V_MPEG4/ISO/AVC
Продолжительность : 1 ч. 41 м.
Битрейт : 9700 Кбит/сек
Ширина : 1280 пикселей
Высота : 688 пикселей
Соотношение сторон : 1,85:1
Режим частоты кадров : Постоянный
Частота кадров : 23,976 (24000/1001) кадра/сек
Цветовое пространство : YUV
Субдискретизация насыщенности : 4:2:0
Битовая глубина : 8 бит
Тип развёртки : Прогрессивная
Бит/(Пиксели*Кадры) : 0.459
Размер потока : 6,84 Гбайт (89%)
Библиотека кодирования : x264 core 152 r2851 ba24899
Настройки программы : cabac=1 / ref=9 / deblock=1:-3:-3 / analyse=0x3:0x133 / me=umh / subme=11 / psy=1 / psy_rd=1.00:0.15 / mixed_ref=1 / me_range=24 / chroma_me=1 / trellis=2 / 8x8dct=1 / cqm=0 / deadzone=21,11 / fast_pskip=0 / chroma_qp_offset=-3 / threads=8 / lookahead_threads=1 / sliced_threads=0 / nr=0 / decimate=1 / interlaced=0 / bluray_compat=0 / constrained_intra=0 / bframes=8 / b_pyramid=2 / b_adapt=2 / b_bias=0 / direct=1 / weightb=1 / open_gop=0 / weightp=2 / keyint=240 / keyint_min=23 / scenecut=40 / intra_refresh=0 / rc_lookahead=40 / rc=2pass / mbtree=0 / bitrate=9700 / ratetol=1.0 / qcomp=0.60 / qpmin=0 / qpmax=69 / qpstep=4 / cplxblur=20.0 / qblur=0.5 / vbv_maxrate=50000 / vbv_bufsize=62500 / nal_hrd=none / filler=0 / ip_ratio=1.40 / pb_ratio=1.30 / aq=2:0.80
Язык : English
Default : Да
Forced : Нет

Аудио #1
Идентификатор : 2
Формат : AC-3
Формат/Информация : Audio Coding 3
Параметр Endianness формата : Big
Идентификатор кодека : A_AC3
Продолжительность : 1 ч. 40 м.
Вид битрейта : Постоянный
Битрейт : 224 Кбит/сек
Каналы : 2 канала
Расположение каналов : Front: L R
Частота : 48,0 КГц
Частота кадров : 31,250 кадров/сек (1536 SPF)
Битовая глубина : 16 бит
Метод сжатия : С потерями
Задержка видео : 10 с. 922 мс.
Размер потока : 162 Мбайт (2%)
Заголовок : AVO М.Чадов
Язык : Russian
ServiceKind/String : Complete Main
Default : Да
Forced : Нет

Аудио #2
Идентификатор : 3
Формат : AC-3
Формат/Информация : Audio Coding 3
Параметр Endianness формата : Big
Идентификатор кодека : A_AC3
Продолжительность : 1 ч. 41 м.
Вид битрейта : Постоянный
Битрейт : 192 Кбит/сек
Каналы : 2 канала
Расположение каналов : Front: L R
Частота : 48,0 КГц
Частота кадров : 31,250 кадров/сек (1536 SPF)
Битовая глубина : 16 бит
Метод сжатия : С потерями
Размер потока : 139 Мбайт (2%)
Заголовок : MVO НТВ+
Язык : Russian
ServiceKind/String : Complete Main
Default : Нет
Forced : Нет

Аудио #3
Идентификатор : 4
Формат : AC-3
Формат/Информация : Audio Coding 3
Параметр Endianness формата : Big
Идентификатор кодека : A_AC3
Продолжительность : 1 ч. 41 м.
Вид битрейта : Постоянный
Битрейт : 192 Кбит/сек
Каналы : 2 канала
Расположение каналов : Front: L R
Частота : 48,0 КГц
Частота кадров : 31,250 кадров/сек (1536 SPF)
Битовая глубина : 16 бит
Метод сжатия : С потерями
Размер потока : 139 Мбайт (2%)
Заголовок : DVO
Язык : Russian
ServiceKind/String : Complete Main
Default : Нет
Forced : Нет

Аудио #4
Идентификатор : 5
Формат : AC-3
Формат/Информация : Audio Coding 3
Параметр Endianness формата : Big
Идентификатор кодека : A_AC3
Продолжительность : 1 ч. 41 м.
Вид битрейта : Постоянный
Битрейт : 192 Кбит/сек
Каналы : 2 канала
Расположение каналов : Front: L R
Частота : 48,0 КГц
Частота кадров : 31,250 кадров/сек (1536 SPF)
Битовая глубина : 16 бит
Метод сжатия : С потерями
Размер потока : 139 Мбайт (2%)
Заголовок : AVO П. Карцев
Язык : Russian
ServiceKind/String : Complete Main
Default : Нет
Forced : Нет

Аудио #5
Идентификатор : 6
Формат : AC-3
Формат/Информация : Audio Coding 3
Параметр Endianness формата : Big
Идентификатор кодека : A_AC3
Продолжительность : 1 ч. 41 м.
Вид битрейта : Постоянный
Битрейт : 448 Кбит/сек
Каналы : 2 канала
Расположение каналов : Front: L R
Частота : 48,0 КГц
Частота кадров : 31,250 кадров/сек (1536 SPF)
Битовая глубина : 16 бит
Метод сжатия : С потерями
Размер потока : 324 Мбайт (4%)
Заголовок : Original
Язык : English
ServiceKind/String : Complete Main
Default : Нет
Forced : Нет

Текст #1
Идентификатор : 7
Формат : UTF-8
Идентификатор кодека : S_TEXT/UTF8
Идентификатор кодека/Информация : UTF-8 Plain Text
Продолжительность : 1 ч. 31 м.
Битрейт : 128 бит/сек
ElementCount : 1270
Размер потока : 85,6 Кбайт (0%)
Язык : Russian
Default : Нет
Forced : Нет

Текст #2
Идентификатор : 8
Формат : UTF-8
Идентификатор кодека : S_TEXT/UTF8
Идентификатор кодека/Информация : UTF-8 Plain Text
Продолжительность : 1 ч. 38 м.
Битрейт : 84 бит/сек
ElementCount : 1504
Размер потока : 60,7 Кбайт (0%)
Язык : English
Default : Нет
Forced : Нет

Меню
00:00:00.000 : en:Train to Vienna
00:14:14.520 : en:"Love is a complex issue"
00:28:19.948 : en:The awkwardness of life
00:36:15.215 : en:"A delusion angel"
00:46:02.218 : en:"This little space in between"
01:14:01.103 : en:"Our one and only night together"
01:27:33.999 : en:"You cannot conquer Time"
x264:
---[Information] [26.10.2017 6:06:57] x264 [info]: frame I:798 Avg QP:14.52 size:173358
---[Information] [26.10.2017 6:06:57] x264 [info]: frame P:27338 Avg QP:16.47 size: 84759
---[Information] [26.10.2017 6:06:57] x264 [info]: frame B:117281 Avg QP:18.70 size: 41726
---[Information] [26.10.2017 6:06:57] x264 [info]: consecutive B-frames: 1.0% 1.1% 3.8% 10.4% 17.4% 47.9% 9.6% 5.1% 3.7%

BDRip: file hash md5: A437FAB3DEF605FD96C22932CFBA00A2
Sample: file hash md5: C90B76B02A2DFF2F52E7EABD190FA7A8


_________________
Проголосуй за трекер Открытый торрент трекер - RUS-MEDIA.ORG

Проголосуй Открытый торрент трекер - RUS-MEDIA.ORG


Вернуться к началу
 Профиль Отправить личное сообщение  
 
   Похожие торренты   Автор   Торрент   Размер 
В этой теме нет новых непрочитанных сообщений. Перед рассветом / Before Sunrise [драма, мелодрама, 1995] BDRip 1080p, Mvo+Dvo+Avo+Sub

salma3

59 | 58

9.03 ГБ

В этой теме нет новых непрочитанных сообщений. Пьяный рассвет / Tequila Sunrise [Боевик, триллер, мелодрама, 1988] BDRip 720p, Dub

salma3

4 | 3

6.51 ГБ

В этой теме нет новых непрочитанных сообщений. Покидая Лас-Вегас / Leaving Las Vegas [драма, мелодрама, 1995] BDRip 720p, Dvo

salma3

76 | 22

9.28 ГБ

В этой теме нет новых непрочитанных сообщений. Прогулка в облаках / A Walk in the Clouds [Драма, мелодрама, 1995] BDRip 720p, Mvo

salma3

27 | 20

7.54 ГБ

В этой теме нет новых непрочитанных сообщений. Старые ворчуны разбушевались / Grumpier Old Men [мелодрама, комедия, 1995] BDRip 720p, Dub+Dvo+Avo+Sub

salma3

49 | 12

4.21 ГБ

В этой теме нет новых непрочитанных сообщений. Перед самым рассветом / Just Before Dawn [ужасы, триллер, 1981] BDRip 1080p, Avo

salma3

11 | 13

6.8 ГБ

В этой теме нет новых непрочитанных сообщений. Детки / Kids [драма, 1995] BDRip 720p, Dvo

salma3

162 | 102

6.13 ГБ


Начать новую тему Ответить на тему  [ 1 сообщение ] 




Для Мосгорсуда, Роскомнадзора и рекламодателей:: mosgorsud-torrent[собачка]yandex.ru
cron