Торрент файл
скачать торрент магнет ссылка Добавлен: 03 ноя 2017, 12:42
Размер: 6.35 ГБ
Сидеров: 48
Личеров: 15
Статус: (salma3)
Автор

СообщениеДобавлено: 03 ноя 2017, 12:42 

Не в сети
Супермодератор
Аватара пользователя
Дата регистрации:
15 фев 2012, 16:44
Возраст: 29
Спасибо: 7339 / 2147
Сообщения: 75658
Год выхода: 1971
Жанр: боевик, триллер, вестерн
Режиссер: Теренс Янг

В ролях: Чарльз Бронсон, Тосиро Мифунэ, Урсула Андресс, Ален Делон, Капюсин, Бернабе Барта Барри, Гуидо Лоллобриджида, Энтони Доусон, Джанни Медичи, Жорж Ликан

О фильме:
70-е годы 19-го века. Поезд, на котором представители японской дипломатической миссии отправляются на прием к американскому президенту, подвергается нападению преступной шайки. В ходе ограбления главарь банды налетчиков Линк оказывается преданным своим подельником Готчем, укравшем среди прочего, дорогой самурайский меч, подарок самому президенту. Скрывшись с места преступления, Готч обзаводится двумя злейшими врагами в лице Линка и самурая Куроды, поклявшегося отомстить похитителям в соответствии с кодексом чести самураев. Так начинается путешествие этого колоритнейшего дуэта, временных союзников с абсолютно разным мировоззрением и взглядами на жизнь. Во время своих странствий они постепенно меняют свое отношение друг к другу, начав с недоверия, а закончив взаимным уважением и дружбой.



Страна: Франция, Италия, Испания
Продолжительность: 01:54:29
Перевод: Профессиональный [многоголосый, закадровый], авторский

Файл
Кодек: HEVC x265 8bit
Качество: BDRip-HEVC 1080p
Видео: 1914x1034, 23.976 кадр/сек, 7353 Кбит/сек, (Main@L4.1@High), 8bit
Звук:
Аудио1: Русская, AC3 192 Кбит/сек, 2 канала(ов),16bit 48,0 КГц (DVD Магия)
Аудио2: Русская, AC3 192 Кбит/сек, 2 канала(ов),16bit 48,0 КГц (А.Гаврилов)
Аудио3: English, AC3 192 Кбит/сек, 2 канала(ов),16bit 48,0 КГц
Субтитры: Русские
Навигация по главам: Присутствует

General
Unique ID : 229874350890251347577633623133597987382 (0xACF030887C6BBB7891E98B75FDD7F236)
Format : Matroska
Format version : Version 4 / Version 2
File size : 6.35 GiB
Duration : 1 h 54 min
Overall bit rate : 7 934 kb/s
Encoded date : UTC 2017-08-18 18:38:43
Writing application : mkvmerge v13.0.0 ('The Juggler') 64bit
Writing library : libebml v1.3.4 + libmatroska v1.4.5
Cover : Yes
Attachments : cover.jpg

Video
ID : 1
Format : HEVC
Format/Info : High Efficiency Video Coding
Format profile : Main@L4.1@High
Codec ID : V_MPEGH/ISO/HEVC
Duration : 1 h 54 min
Bit rate : 7 353 kb/s
Width : 1 914 pixels
Height : 1 034 pixels
Display aspect ratio : 1.85:1
Frame rate mode : Constant
Frame rate : 23.976 (24000/1001) FPS
Color space : YUV
Chroma subsampling : 4:2:0
Bit depth : 8 bits
Bits/(Pixel*Frame) : 0.155
Stream size : 5.88 GiB (93%)
Writing library : x265 2.5+9-fdf39a97ecb8:[Windows][GCC 7.1.0][64 bit] 8bit
Encoding settings : cpuid=1050111 / frame-threads=5 / numa-pools=4 / wpp / no-pmode / no-pme / no-psnr / no-ssim / log-level=3 / input-csp=1 / input-res=1914x1034 / interlace=0 / total-frames=0 / level-idc=41 / high-tier=1 / uhd-bd=0 / ref=4 / no-allow-non-conformance / no-repeat-headers / annexb / no-aud / no-hrd / info / hash=0 / no-temporal-layers / open-gop / min-keyint=23 / keyint=250 / bframes=10 / b-adapt=2 / b-pyramid / bframe-bias=0 / rc-lookahead=40 / lookahead-slices=6 / scenecut=40 / no-intra-refresh / ctu=64 / min-cu-size=8 / no-rect / no-amp / max-tu-size=32 / tu-inter-depth=2 / tu-intra-depth=2 / limit-tu=0 / rdoq-level=0 / dynamic-rd=0.00 / no-ssim-rd / signhide / no-tskip / nr-intra=0 / nr-inter=0 / no-constrained-intra / strong-intra-smoothing / max-merge=3 / limit-refs=3 / no-limit-modes / me=2 / subme=4 / merange=32 / temporal-mvp / weightp / weightb / no-analyze-src-pics / deblock=-3:-3 / no-sao / no-sao-non-deblock / rd=3 / no-early-skip / rskip / no-fast-intra / no-tskip-fast / no-cu-lossless / no-b-intra / rdpenalty=0 / psy-rd=4.00 / psy-rdoq=0.00 / no-rd-refine / analysis-reuse-mode=0 / no-lossless / cbqpoffs=0 / crqpoffs=0 / rc=crf / crf=19.0 / qcomp=0.60 / qpstep=4 / stats-write=0 / stats-read=0 / vbv-maxrate=50000 / vbv-bufsize=35714 / vbv-init=0.9 / crf-max=30.0 / crf-min=0.0 / ipratio=1.40 / pbratio=1.30 / aq-mode=1 / aq-strength=1.00 / cutree / zone-count=0 / no-strict-cbr / qg-size=32 / no-rc-grain / qpmax=69 / qpmin=0 / no-const-vbv / sar=1 / overscan=0 / videoformat=5 / range=0 / colorprim=2 / transfer=2 / colormatrix=2 / chromaloc=0 / display-window=0 / max-cll=0,0 / min-luma=0 / max-luma=255 / log2-max-poc-lsb=8 / vui-timing-info / vui-hrd-info / slices=1 / opt-qp-pps / opt-ref-list-length-pps / no-multi-pass-opt-rps / scenecut-bias=0.05 / no-opt-cu-delta-qp / no-aq-motion / no-hdr / no-hdr-opt / no-dhdr10-opt / analysis-reuse-level=5 / scale-factor=0 / refine-intra=0 / refine-inter=0 / refine-mv=0 / no-limit-sao / ctu-info=0
Language : English
Default : Yes
Forced : No

Audio #1
ID : 2
Format : AC-3
Format/Info : Audio Coding 3
Mode : Dolby Digital
Format settings, Endianness : Big
Codec ID : A_AC3
Duration : 1 h 54 min
Bit rate mode : Constant
Bit rate : 192 kb/s
Channel(s) : 2 channels
Channel positions : Front: L R
Sampling rate : 48.0 kHz
Frame rate : 31.250 FPS (1536 SPF)
Bit depth : 16 bits
Compression mode : Lossy
Stream size : 157 MiB (2%)
Title : DVD Магия
Language : Russian
Service kind : Complete Main
Default : Yes
Forced : No

Audio #2
ID : 3
Format : AC-3
Format/Info : Audio Coding 3
Mode : Dolby Digital
Format settings, Endianness : Big
Codec ID : A_AC3
Duration : 1 h 54 min
Bit rate mode : Constant
Bit rate : 192 kb/s
Channel(s) : 2 channels
Channel positions : Front: L R
Sampling rate : 48.0 kHz
Frame rate : 31.250 FPS (1536 SPF)
Bit depth : 16 bits
Compression mode : Lossy
Stream size : 157 MiB (2%)
Title : А.Гаврилов
Language : Russian
Service kind : Complete Main
Default : No
Forced : No

Audio #3
ID : 4
Format : AC-3
Format/Info : Audio Coding 3
Format settings, Endianness : Big
Codec ID : A_AC3
Duration : 1 h 54 min
Bit rate mode : Constant
Bit rate : 192 kb/s
Channel(s) : 2 channels
Channel positions : Front: L R
Sampling rate : 48.0 kHz
Frame rate : 31.250 FPS (1536 SPF)
Bit depth : 16 bits
Compression mode : Lossy
Stream size : 157 MiB (2%)
Language : English
Service kind : Complete Main
Default : No
Forced : No

Text
ID : 5
Format : PGS
Muxing mode : zlib
Codec ID : S_HDMV/PGS
Codec ID/Info : Picture based subtitle format used on BDs/HD-DVDs
Duration : 1 h 52 min
Bit rate : 13.0 kb/s
Count of elements : 1378
Stream size : 10.5 MiB (0%)
Language : Russian
Default : Yes
Forced : No

Menu
00:00:00.000 : :Глава 1
00:05:10.560 : :Глава 2
00:15:09.950 : :Глава 3
00:19:51.397 : :Глава 4
00:24:47.527 : :Глава 5
00:47:44.277 : :Глава 6
00:57:16.349 : :Глава 7
01:08:11.212 : :Глава 8
01:25:21.741 : :Глава 9
01:30:31.634 : :Глава 10
01:40:50.919 : :Глава 11
01:53:20.251 : :Глава 12
01:54:28.862 : :Глава 13


Релиз от: Cthulhu


_________________
Проголосуй за трекер Открытый торрент трекер - RUS-MEDIA.ORG

Проголосуй Открытый торрент трекер - RUS-MEDIA.ORG


Вернуться к началу
 Профиль Отправить личное сообщение  
 
   Похожие торренты   Автор   Торрент   Размер 
В этой теме нет новых непрочитанных сообщений. Красное солнце / Soleil rouge [Боевик, триллер, вестерн, 1971] HDRip-AVC, Mvo

salma3

38 | 4

746.45 МБ

В этой теме нет новых непрочитанных сообщений. Большой босс / Tang shan da xiong [боевик, драма, криминал, 1971] BDRip-HEVC 1080p, Mvo

salma3

0 | 0

6.8 ГБ

В этой теме нет новых непрочитанных сообщений. Спасение / The Salvation [драма, вестерн, боевик, 2014] BDRip-HEVC 1080p, Dub

salma3

0 | 0

4.15 ГБ

В этой теме нет новых непрочитанных сообщений. Великолепная семерка / The Magnificent Seven (боевик, приключения, вестерн, 2016) BDRip HEVC 1080p | Лицензия

marya111

978 | 323

9.6 ГБ

В этой теме нет новых непрочитанных сообщений. Охота / The Hunting Party [боевик, драма, вестерн, 1971] BDRip 1080p, Mvo

salma3

45 | 30

9.37 ГБ

В этой теме нет новых непрочитанных сообщений. Док / «Doc» [Вестерн, 1971] BDRip 1080p, Mvo

salma3

23 | 7

12.5 ГБ

В этой теме нет новых непрочитанных сообщений. Непрощенный / Unforgiven [Драма, Вестерн, 1992] BDRip-HEVC 1080p, Dub [Remastered]

salma3

1 | 0

6.31 ГБ


Начать новую тему Ответить на тему  [ 1 сообщение ] 




Для Мосгорсуда, Роскомнадзора и рекламодателей:: mosgorsud-torrent[собачка]yandex.ru
cron