Торрент файл
скачать торрент магнет ссылка Добавлен: 01 ноя 2017, 21:20
Размер: 9.07 ГБ
Сидеров: 3
Личеров: 2
Статус: (salma3)
Автор

СообщениеДобавлено: 01 ноя 2017, 21:20 

Не в сети
Супермодератор
Аватара пользователя
Дата регистрации:
15 фев 2012, 16:44
Возраст: 28
Спасибо: 6644 / 2146
Сообщения: 46014
Год выпуска: 1991
Жанр: фантастика, боевик, комедия
Выпущено: США
Продолжительность: 01:30:36
Перевод: Профессиональный многоголосый, профессиональный двухголосый, авторский одноголосый
Режиссер: Берт Кеннеди

В ролях: Халк Хоган, Кристофер Ллойд, Шелли Дювалл, Ларри Миллер, Уильям Болл, Джо Энн Диаринг, Джек Элам, Рой Дотрис, Тони Лонго, Майкл Фаустино


О фильме:
Халк Хоган, играет роль интергалактического героя по имени Шеп. Миссия атлетичного Шепа — исправлять и перевоспитывать плохих. У героя есть специальный силовой костюм, который делает его практически неуязвимым. Когда космический корабль Шепа ломается, он совершает вынужденную посадку на планету Земля. Астронавт поселяется в пригороде, у семьи Уилкокс. Шеп оставляет силовой костюм дома, чтобы не привлекать внимания людей, и отправляется гулять по окрестностям, где он сразу обнаруживает несколько «плохишей». Это хамоватые разносчики газет, водители-лихачи и уличные грабители, которым Шеп преподаст суровый урок. Тем временем отец семейства обнаруживает силовой костюм астронавта и примеряет его.




Файл
Качество: WEB-DL 1080p
Видео: MPEG-4 AVC, 12900 kbps, 1920x1080 (16:9), 29.970 fps, High Profile 4.0
Аудио 1: Russian: 48 kHz, AC3, 2 ch, 192 kbps |AVO, А. Гаврилов|
Аудио 2: Russian: 48 kHz, AC3, 2 ch, 192 kbps |MVO, НТВ|
Аудио 3: Russian: 48 kHz, AC3, 2 ch, 192 kbps |MVO, СТС|
Аудио 4: Ukrainian: 48 kHz, AC3, 2 ch, 192 kbps |DVO, Новый канал|
Аудио 5: Ukrainian: 48 kHz, AC3, 2 ch, 192 kbps |DVO, 1+1|
Аудио 6: English: 48 kHz, E-AC3, 2 ch, 192 kbps |Оригинал|
Субтитры: Английские

Релиз от:

• Исходник видео WEB-DL Amazon

Общее
Уникальный идентификатор : 179182774897125770213597974729728185721 (0x86CD58E015F3C3D8A74AC8751E8FD579)
Полное имя : Suburban.Commando.1991.WEB-DL.1080p.mkv
Формат : Matroska
Версия формата : Version 4 / Version 2
Размер файла : 9,07 Гбайт
Продолжительность : 1 ч. 30 м.
Режим общего битрейта : Переменный
Общий поток : 14,3 Мбит/сек
Название фильма : Suburban.Commando.1991.WEB-DL.1080p
Дата кодирования : UTC 2016-10-20 23:48:24
Программа кодирования : mkvmerge v7.1.0 ('Good Love') 64bit built on Jul 27 2014 13:06:55
Библиотека кодирования : libebml v1.3.0 + libmatroska v1.4.1

Видео
Идентификатор : 1
Формат : AVC
Формат/Информация : Advanced Video Codec
Профиль формата : High@L4
Параметр CABAC формата : Да
Параметр RefFrames формата : 4 кадра
Идентификатор кодека : V_MPEG4/ISO/AVC
Продолжительность : 1 ч. 30 м.
Вид битрейта : Переменный
Битрейт : 13,2 Мбит/сек
Максимальный битрейт : 15,0 Мбит/сек
Ширина : 1920 пикселей
Высота : 1080 пикселей
Соотношение сторон : 16:9
Режим частоты кадров : Постоянный
Частота кадров : 29,970 (30000/1001) кадров/сек
Цветовое пространство : YUV
Субдискретизация насыщенности : 4:2:0
Битовая глубина : 8 бит
Тип развёртки : Прогрессивная
Бит/(Пиксели*Кадры) : 0.212
Размер потока : 8,34 Гбайт (92%)
Заголовок : (Rip by Amazon)
Библиотека кодирования : x264 core 148 r2623 d5b2374
Настройки программы : cabac=1 / ref=4 / deblock=1:-1:-1 / analyse=0x3:0x133 / me=umh / subme=9 / psy=1 / psy_rd=1.00:0.15 / mixed_ref=1 / me_range=24 / chroma_me=1 / trellis=2 / 8x8dct=1 / cqm=0 / deadzone=21,11 / fast_pskip=1 / chroma_qp_offset=-3 / threads=34 / lookahead_threads=5 / sliced_threads=0 / nr=150 / decimate=1 / interlaced=0 / bluray_compat=0 / constrained_intra=0 / bframes=8 / b_pyramid=2 / b_adapt=2 / b_bias=0 / direct=3 / weightb=1 / open_gop=0 / weightp=2 / keyint=150 / keyint_min=76 / scenecut=0 / intra_refresh=0 / rc_lookahead=150 / rc=crf / mbtree=1 / crf=18.0 / qcomp=0.60 / qpmin=0 / qpmax=69 / qpstep=4 / vbv_maxrate=15000 / vbv_bufsize=31250 / crf_max=0.0 / nal_hrd=vbr / filler=0 / ip_ratio=1.40 / aq=3:1.00
Язык : English
Default : Да
Forced : Нет
Цветовой диапазон : Limited
Основные цвета : BT.709
Характеристики трансфера : BT.709
Коэффициенты матрицы : BT.709

Аудио #1
Идентификатор : 2
Формат : AC-3
Формат/Информация : Audio Coding 3
Параметр Endianness формата : Big
Идентификатор кодека : A_AC3
Продолжительность : 1 ч. 30 м.
Вид битрейта : Постоянный
Битрейт : 192 Кбит/сек
Каналы : 2 канала
Расположение каналов : Front: L R
Частота : 48,0 КГц
Частота кадров : 31,250 кадров/сек (1536 SPF)
Битовая глубина : 16 бит
Метод сжатия : С потерями
Размер потока : 124 Мбайт (1%)
Заголовок : AO [A.Gavrilov]
Язык : Russian
Default : Да
Forced : Нет

Аудио #2
Идентификатор : 3
Формат : AC-3
Формат/Информация : Audio Coding 3
Параметр Endianness формата : Big
Идентификатор кодека : A_AC3
Продолжительность : 1 ч. 30 м.
Вид битрейта : Постоянный
Битрейт : 192 Кбит/сек
Каналы : 2 канала
Расположение каналов : Front: L R
Частота : 48,0 КГц
Частота кадров : 31,250 кадров/сек (1536 SPF)
Битовая глубина : 16 бит
Метод сжатия : С потерями
Размер потока : 124 Мбайт (1%)
Заголовок : MVO [HTB]
Язык : Russian
Default : Нет
Forced : Нет

Аудио #3
Идентификатор : 4
Формат : AC-3
Формат/Информация : Audio Coding 3
Параметр Endianness формата : Big
Идентификатор кодека : A_AC3
Продолжительность : 1 ч. 30 м.
Вид битрейта : Постоянный
Битрейт : 192 Кбит/сек
Каналы : 2 канала
Расположение каналов : Front: L R
Частота : 48,0 КГц
Частота кадров : 31,250 кадров/сек (1536 SPF)
Битовая глубина : 16 бит
Метод сжатия : С потерями
Размер потока : 124 Мбайт (1%)
Заголовок : MVO [CTC]
Язык : Russian
Default : Нет
Forced : Нет

Аудио #4
Идентификатор : 5
Формат : AC-3
Формат/Информация : Audio Coding 3
Параметр Endianness формата : Big
Идентификатор кодека : A_AC3
Продолжительность : 1 ч. 30 м.
Вид битрейта : Постоянный
Битрейт : 192 Кбит/сек
Каналы : 2 канала
Расположение каналов : Front: L R
Частота : 48,0 КГц
Частота кадров : 31,250 кадров/сек (1536 SPF)
Битовая глубина : 16 бит
Метод сжатия : С потерями
Размер потока : 124 Мбайт (1%)
Заголовок : DVO [Новий канал]
Язык : Ukrainian
Default : Нет
Forced : Нет

Аудио #5
Идентификатор : 6
Формат : AC-3
Формат/Информация : Audio Coding 3
Параметр Endianness формата : Big
Идентификатор кодека : A_AC3
Продолжительность : 1 ч. 30 м.
Вид битрейта : Постоянный
Битрейт : 192 Кбит/сек
Каналы : 2 канала
Расположение каналов : Front: L R
Частота : 48,0 КГц
Частота кадров : 31,250 кадров/сек (1536 SPF)
Битовая глубина : 16 бит
Метод сжатия : С потерями
Размер потока : 124 Мбайт (1%)
Заголовок : DVO [1+1]
Язык : Ukrainian
Default : Нет
Forced : Нет

Аудио #6
Идентификатор : 7
Формат : E-AC-3
Формат/Информация : Enhanced Audio Coding 3
Параметр Endianness формата : Big
Идентификатор кодека : A_EAC3
Продолжительность : 1 ч. 30 м.
Вид битрейта : Постоянный
Битрейт : 192 Кбит/сек
Каналы : 2 канала
Расположение каналов : Front: L R
Частота : 48,0 КГц
Частота кадров : 187,500 кадров/сек (256 SPF)
Метод сжатия : С потерями
Размер потока : 124 Мбайт (1%)
Язык : English
Default : Нет
Forced : Нет

Текст
Идентификатор : 8
Формат : UTF-8
Идентификатор кодека : S_TEXT/UTF8
Идентификатор кодека/Информация : UTF-8 Plain Text
Продолжительность : 1 ч. 29 м.
Битрейт : 56 бит/сек
ElementCount : 1542
Размер потока : 37,0 Кбайт (0%)
Заголовок : SDH
Язык : English
Default : Нет
Forced : Нет


_________________
Проголосуй за трекер Открытый торрент трекер - RUS-MEDIA.ORG

Проголосуй Открытый торрент трекер - RUS-MEDIA.ORG



реклама партнёра


Вернуться к началу
 Профиль Отправить личное сообщение  
 
   Похожие торренты   Автор   Торрент   Размер 
В этой теме нет новых непрочитанных сообщений. Коммандо из пригорода / Suburban Commando [фантастика, боевик, комедия, 1991] WEB-DLRip, Mvo+Avo

salma3

0 | 0

1.45 ГБ

В этой теме нет новых непрочитанных сообщений. Коммандо из пригорода / Suburban Commando [фантастика, боевик, комедия, 1991] BDRip 720p, Mvo+Avo

salma3

15 | 8

5.26 ГБ

В этой теме нет новых непрочитанных сообщений. Гайвер / Guyver [Фантастика, боевик, комедия, 1991] Blu-Ray Remux 1080p, 4Avo+Sub

salma3

30 | 5

18.94 ГБ

В этой теме нет новых непрочитанных сообщений. Горец 2: Оживление / Highlander II: The Quickening [Фантастика, боевик, 1991] BDRip 1080p, Dub+Mvo+Dvo+Avo+Sub

salma3

3 | 3

12.46 ГБ

В этой теме нет новых непрочитанных сообщений. Бомба замедленного действия / Timebomb [фантастика, боевик, триллер, 1991] BDRip 1080p, Mvo

salma3

19 | 13

8.89 ГБ

В этой теме нет новых непрочитанных сообщений. Терминатор 2: Судный день / Terminator 2: Judgment Day [Фантастика, боевик, триллер, 1991] BDRemux 1080p, Avo [Theatrical Cut] [Remastered]

salma3

0 | 0

24.23 ГБ

В этой теме нет новых непрочитанных сообщений. Терминатор 2: Судный день / Terminator 2: Judgment Day [Фантастика, боевик, триллер, 1991] BDRemux 1080p, Avo [Theatrical Cut] [Remastered]

salma3

14 | 4

25.75 ГБ


Начать новую тему Ответить на тему  [ 1 сообщение ] 




Для Мосгорсуда, Роскомнадзора и рекламодателей:: mosgorsud-torrent[собачка]yandex.ru