Торрент файл
скачать торрент магнет ссылка Добавлен: 31 окт 2017, 12:50
Размер: 11.77 ГБ
Сидеров: 16
Личеров: 5
Статус: (salma3)
Автор

СообщениеДобавлено: 31 окт 2017, 12:50 

Не в сети
Супермодератор
Аватара пользователя
Дата регистрации:
15 фев 2012, 16:44
Возраст: 29
Спасибо: 7332 / 2147
Сообщения: 73912
Год выхода: 1993
Жанр: фантастика, фэнтези, драма, детектив, биография
Выпущено: США, Paramount Pictures
Продолжительность: 01:49:20
Перевод: Профессиональный двухголосый
Режиссер: Роберт Либерман

В ролях: Д.Б. Суини, Роберт Патрик, Крэйг Шеффер, Питер Берг, Генри Томас, Брэдли Грегг, Ноубл Уиллингэм, Кэтлин Уилхойт, Джеймс Гарнер, Джорджия Эмелин


О фильме:
Однажды, осенним вечером, группа лесорубов, трудившихся в чаще северо-восточной части штата Аризона, заметила необычайно яркий источник света. Любопытные работяги, среди которых был и Тревис Уолтон, решили рассмотреть странный огонь вблизи. Это и явилось их роковой ошибкой. Тревис Уолтон исчез на глазах своих товарищей. Парализованные ужасом, лесорубы сообщили, что несчастного похитил НЛО. Но этим людям не поверили и начали подозревать их в убийстве. Местные власти объявили официальный розыск Тревиса Уолтона. Полиция совместно с отрядами гражданской обороны день и ночь прочесывала окрестности. Однако попытки найти пропавшего рабочего были тщетны.




Файл
Качество: WEB-DL 1080p
Видео: MPEG-4 AVC, 13700 кбит/с, 1920x1080, 23.976 кадр/с
Аудио 1: Russian: 48 kHz, AC3, 6 ch, 384 kbps |DVO, НТВ+|
Аудио 2: Russian: 48 kHz, AC3, 2 ch, 384 kbps |DVO, Премьер Видео|
Аудио 3: English: 48 kHz, AC3, 6 ch, 640 kbps |Оригинал|
Субтитры: Russian, English
Навигация по главам: есть

Релиз от:

• Исходник видео WEB-DL Amazon

Общее
Уникальный идентификатор : 193373584667648824093478050507923016709 (0x917A65D0BF8083CB929C3BC3D7C64C05)
Полное имя : Fire in the Sky.1993.WEB-DL.1080p.mkv
Формат : Matroska
Версия формата : Version 4 / Version 2
Размер файла : 11,8 Гбайт
Продолжительность : 1 ч. 49 м.
Режим общего битрейта : Переменный
Общий поток : 15,4 Мбит/сек
Название фильма : Fire in the Sky 1993
Дата кодирования : UTC 2016-09-26 18:43:46
Программа кодирования : mkvmerge v9.3.1 ('Mask Machine') 64bit
Библиотека кодирования : libebml v1.3.4 + libmatroska v1.4.5

Видео
Идентификатор : 1
Формат : AVC
Формат/Информация : Advanced Video Codec
Профиль формата : High@L4
Параметр CABAC формата : Да
Параметр RefFrames формата : 4 кадра
Идентификатор кодека : V_MPEG4/ISO/AVC
Продолжительность : 1 ч. 49 м.
Вид битрейта : Переменный
Битрейт : 14,0 Мбит/сек
Максимальный битрейт : 15,0 Мбит/сек
Ширина : 1920 пикселей
Высота : 1080 пикселей
Соотношение сторон : 16:9
Режим частоты кадров : Постоянный
Частота кадров : 23,976 (24000/1001) кадра/сек
Цветовое пространство : YUV
Субдискретизация насыщенности : 4:2:0
Битовая глубина : 8 бит
Тип развёртки : Прогрессивная
Бит/(Пиксели*Кадры) : 0.282
Размер потока : 10,7 Гбайт (91%)
Заголовок : Fire in the Sky 1993
Язык : English
Default : Да
Forced : Да
Цветовой диапазон : Limited
Основные цвета : BT.709
Характеристики трансфера : BT.709
Коэффициенты матрицы : BT.709

Аудио #1
Идентификатор : 2
Формат : AC-3
Формат/Информация : Audio Coding 3
Параметр Endianness формата : Big
Идентификатор кодека : A_AC3
Продолжительность : 1 ч. 49 м.
Вид битрейта : Постоянный
Битрейт : 384 Кбит/сек
Каналы : 6 каналов
Расположение каналов : Front: L C R, Side: L R, LFE
Частота : 48,0 КГц
Частота кадров : 31,250 кадров/сек (1536 SPF)
Битовая глубина : 16 бит
Метод сжатия : С потерями
Размер потока : 300 Мбайт (2%)
Заголовок : DVO (НТВ+)
Язык : Russian
Default : Нет
Forced : Нет

Аудио #2
Идентификатор : 3
Формат : AC-3
Формат/Информация : Audio Coding 3
Параметр Endianness формата : Big
Идентификатор кодека : A_AC3
Продолжительность : 1 ч. 49 м.
Вид битрейта : Постоянный
Битрейт : 384 Кбит/сек
Каналы : 2 канала
Расположение каналов : Front: L R
Частота : 48,0 КГц
Частота кадров : 31,250 кадров/сек (1536 SPF)
Битовая глубина : 16 бит
Метод сжатия : С потерями
Размер потока : 300 Мбайт (2%)
Заголовок : DVO (Премьер Видео Фильм)
Язык : Russian
Default : Нет
Forced : Нет

Аудио #3
Идентификатор : 4
Формат : E-AC-3
Формат/Информация : Enhanced Audio Coding 3
Параметр Endianness формата : Big
Идентификатор кодека : A_EAC3
Продолжительность : 1 ч. 49 м.
Вид битрейта : Постоянный
Битрейт : 640 Кбит/сек
Каналы : 6 каналов
Расположение каналов : Front: L C R, Side: L R, LFE
Частота : 48,0 КГц
Частота кадров : 187,500 кадров/сек (256 SPF)
Метод сжатия : С потерями
Размер потока : 500 Мбайт (4%)
Заголовок : Dolby Digital Plus 5.1 @ 640 kbps
Язык : English
Default : Да
Forced : Да

Текст #1
Идентификатор : 5
Формат : UTF-8
Идентификатор кодека : S_TEXT/UTF8
Идентификатор кодека/Информация : UTF-8 Plain Text
Продолжительность : 1 ч. 40 м.
Битрейт : 96 бит/сек
ElementCount : 1130
Размер потока : 71,3 Кбайт (0%)
Заголовок : vasapel
Язык : Russian
Default : Нет
Forced : Нет

Текст #2
Идентификатор : 6
Формат : UTF-8
Идентификатор кодека : S_TEXT/UTF8
Идентификатор кодека/Информация : UTF-8 Plain Text
Продолжительность : 1 ч. 45 м.
Битрейт : 73 бит/сек
ElementCount : 1694
Размер потока : 57,2 Кбайт (0%)
Заголовок : SDH
Язык : English
Default : Нет
Forced : Нет

Меню
00:00:00.000 : en:Sticking To The Story
00:07:13.000 : en:A Clear Record
00:16:21.000 : en:Work Day
00:23:21.000 : en:Like A Fire
00:28:56.000 : en:They Took Him
00:35:33.000 : en:Search Party
00:41:41.000 : en:What Really Happened
00:49:49.000 : en:Find Dallis
00:54:26.000 : en:Town Meeting
00:59:10.000 : en:Lie Detector Test
01:05:30.000 : en:Rescue Call
01:12:26.000 : en:Triggering Bad Memories
01:20:53.000 : en:A Fish Out Of Water
01:28:16.000 : en:Things Get Rough
01:36:53.000 : en:Family Man
01:40:49.000 : en:Facing The Past


_________________
Проголосуй за трекер Открытый торрент трекер - RUS-MEDIA.ORG

Проголосуй Открытый торрент трекер - RUS-MEDIA.ORG


Вернуться к началу
 Профиль Отправить личное сообщение  
 
   Похожие торренты   Автор   Торрент   Размер 
В этой теме нет новых непрочитанных сообщений. Огненное кольцо 2: Огонь и сталь / Ring of Fire II: Blood and Steel [Боевик, драма, 1993] DVDRip, Mvo

salma3

17 | 1

1.37 ГБ

В этой теме нет новых непрочитанных сообщений. Беглый огонь / Rapid Fire [Боевик, триллер, драма, 1992] BDRip 1080p, Dub

salma3

0 | 0

7.63 ГБ

В этой теме нет новых непрочитанных сообщений. Твин Пикс: Сквозь огонь / Twin Peaks: Fire Walk with Me [триллер, драма, криминал, 1992] BDRemux 1080p, Mvo

salma3

5 | 12

50.27 ГБ

В этой теме нет новых непрочитанных сообщений. На линии огня / In the Line of Fire [боевик, триллер, драма, криминал, детектив, 1993] BDRip 720p, Dub

salma3

47 | 10

7.75 ГБ

В этой теме нет новых непрочитанных сообщений. Зеленый огонь / Green Fire [Драма, приключения, 1954] DVDRip, Mvo

salma3

18 | 3

1.37 ГБ

В этой теме нет новых непрочитанных сообщений. Беглый огонь / Rapid Fire [боевик, триллер, драма, 1992] WEB-DL 1080р, Dub

salma3

23 | 9

4.04 ГБ

В этой теме нет новых непрочитанных сообщений. Беглый огонь / Rapid Fire [Боевик, триллер, драма, 1992] WEB-DLRip-AVC, Dub

salma3

0 | 1

1.33 ГБ


Начать новую тему Ответить на тему  [ 1 сообщение ] 




Для Мосгорсуда, Роскомнадзора и рекламодателей:: mosgorsud-torrent[собачка]yandex.ru
cron