Торрент файл
скачать торрент магнет ссылка Добавлен: 31 окт 2017, 12:44
Размер: 21.6 ГБ
Сидеров: 1
Личеров: 0
Статус: (salma3)
Автор

СообщениеДобавлено: 31 окт 2017, 12:44 

Не в сети
Супермодератор
Аватара пользователя
Дата регистрации:
15 фев 2012, 16:44
Возраст: 28
Спасибо: 6672 / 2146
Сообщения: 46181
Год выхода: 1989
Жанр: Фантастика, боевик
Режиссер: Альберт Пьюн

В ролях: Жан-Клод Ван Дамм, Дебора Рихтер, Винсент Клин, Алекс Дэниелс, Дейл Хэддон, Блэйз Лунг, Ральф Мёллер, Хейли Питерсон, Терри Батсон, Джексон «Скала» Пинкни, Джэнис Грейсер, Роберт Пентз, Шерон К. Тью, Чак Аллен, Стефанос Мильцакакис

О фильме:
Америка 21-го века, прозябая в социальной анархии и смертоносной чуме, вот-вот станет жертвой бурного воровского беспредела. Только Перл Профет, прекрасная полуженщина-полуробот, знает секрет создания спасительной вакцины. Собирая компоненты, необходимые для спасения человечества, Перл попадает в плен к людоеду Флэшу Пайротсу, который замыслил использовать противоядие в личных целях и добиться господства над целым миром. Теперь только стальной кулак героя-меченосца Гибсона Рикенбакера может спасти ее, а заодно и все, что еще осталось от человечества…


Страна: США
Продолжительность: 01:26:24
Перевод: Профессиональный многоголосый, авторский

Файл
Кодек: MPEG-4 AVC
Качество: BDRemux 1080p
Видео: 30.9 Мбит/с, 1920x1080, 23.976 кадр/с
Аудио:1. Русский DTS-HD Master Audio 1613 kbps 2.0 / 48 kHz / 1613 kbps / 24-bit (DTS Core: 2.0 / 48 kHz / 768 kbps / 24-bit) - Профессиональный многоголосый (R5)
Аудио:2. Русский DTS-HD Master Audio 992 kbps 2.0 / 48 kHz / 992 kbps / 16-bit (DTS Core: 2.0 / 48 kHz / 768 kbps / 16-bit) - Авторский (А.Гаврилов)
Аудио:3. Русский DTS-HD Master Audio 969 kbps 2.0 / 48 kHz / 969 kbps / 16-bit (DTS Core: 2.0 / 48 kHz / 768 kbps / 16-bit) - Авторский (В.Дохалов)
Аудио:4. Русский Dolby Digital Audio 192 kbps 2.0 / 48 kHz / 192 kbps / DN -4dB / Dolby Surround - Авторский (Л.Володарский)
Аудио:5. Украинский Dolby Digital Audio 192 kbps 2.0 / 48 kHz / 192 kbps / DN -4dB - Профессиональный двухголосый (1+1)
Аудио:6. Английский DTS-HD Master Audio 939 kbps 2.0 / 48 kHz / 939 kbps / 24-bit (DTS Core: 2.0 / 48 kHz / 768 kbps / 24-bit) - Оригинал
Субтитры: (PGS), Русские, английские


Общее
Уникальный идентификатор : 192485049061498229550389831386026801219 (0x90CF45A0B4E5B0B69BFD721D0664F843)
Полное имя : X:\Video\BD Remux\Cyborg.1989.BDRemux.1080p.4RusUkrEng.mkv
Формат : Matroska
Версия формата : Version 4 / Version 2
Размер файла : 21,6 Гбайт
Продолжительность : 1 ч. 26 м.
Режим общего битрейта : Переменный
Общий поток : 35,8 Мбит/сек
Дата кодирования : UTC 2017-10-29 14:05:03
Программа кодирования : mkvmerge v17.0.0 ('Be Ur Friend') 64-bit
Библиотека кодирования : libebml v1.3.5 + libmatroska v1.4.8

Видео
Идентификатор : 1
Формат : AVC
Формат/Информация : Advanced Video Codec
Профиль формата : High@L4.1
Настройки формата : CABAC / 4 Ref Frames
Параметр CABAC формата : Да
Параметр RefFrames формата : 4 кадра
Идентификатор кодека : V_MPEG4/ISO/AVC
Продолжительность : 1 ч. 26 м.
Вид битрейта : Переменный
Битрейт : 30,9 Мбит/сек
Максимальный битрейт : 38,0 Мбит/сек
Ширина : 1920 пикселей
Высота : 1080 пикселей
Соотношение сторон : 16:9
Режим частоты кадров : Постоянный
Частота кадров : 23,976 (24000/1001) кадра/сек
Цветовое пространство : YUV
Субдискретизация насыщенности : 4:2:0
Битовая глубина : 8 бит
Тип развёртки : Прогрессивная
Бит/(Пиксели*Кадры) : 0.621
Размер потока : 18,6 Гбайт (86%)
Заголовок : Cyborg.1989.BDRemux.1080p
Default : Да
Forced : Нет

Аудио #1
Идентификатор : 2
Формат : DTS
Формат/Информация : Digital Theater Systems
Профиль формата : MA / Core
Режим : 16
Параметр Endianness формата : Big
Идентификатор кодека : A_DTS
Продолжительность : 1 ч. 26 м.
Вид битрейта : Переменный / Постоянный
Битрейт : 1613 Кбит/сек / 768 Кбит/сек
Каналы : 2 канала
Расположение каналов : Front: L R
Частота : 48,0 КГц
Частота кадров : 93,750 кадра/сек (512 SPF)
Битовая глубина : 24 бит
Метод сжатия : Без потерь / Lossy
Размер потока : 997 Мбайт (5%)
Заголовок : DTS-HD MA MVO - R5
Язык : Russian
Default : Да
Forced : Нет

Аудио #2
Идентификатор : 3
Формат : DTS
Формат/Информация : Digital Theater Systems
Профиль формата : MA / Core
Режим : 16
Параметр Endianness формата : Big
Идентификатор кодека : A_DTS
Продолжительность : 1 ч. 26 м.
Вид битрейта : Переменный / Постоянный
Битрейт : 992 Кбит/сек / 768 Кбит/сек
Каналы : 2 канала
Расположение каналов : Front: L R
Частота : 48,0 КГц
Частота кадров : 93,750 кадра/сек (512 SPF)
Битовая глубина : 16 бит
Метод сжатия : Без потерь / Lossy
Размер потока : 613 Мбайт (3%)
Заголовок : DTS-HD MA А.Гаврилов
Язык : Russian
Default : Нет
Forced : Нет

Аудио #3
Идентификатор : 4
Формат : DTS
Формат/Информация : Digital Theater Systems
Профиль формата : MA / Core
Режим : 16
Параметр Endianness формата : Big
Идентификатор кодека : A_DTS
Продолжительность : 1 ч. 26 м.
Вид битрейта : Переменный / Постоянный
Битрейт : 960 Кбит/сек / 768 Кбит/сек
Каналы : 2 канала
Расположение каналов : Front: L R
Частота : 48,0 КГц
Частота кадров : 93,750 кадра/сек (512 SPF)
Битовая глубина : 16 бит
Метод сжатия : Без потерь / Lossy
Размер потока : 599 Мбайт (3%)
Заголовок : DTS-HD MA В.Дохалов
Язык : Russian
Default : Нет
Forced : Нет

Аудио #4
Идентификатор : 5
Формат : AC-3
Формат/Информация : Audio Coding 3
Режим : Dolby Digital
Параметр Endianness формата : Big
Идентификатор кодека : A_AC3
Продолжительность : 1 ч. 26 м.
Вид битрейта : Постоянный
Битрейт : 192 Кбит/сек
Каналы : 2 канала
Расположение каналов : Front: L R
Частота : 48,0 КГц
Частота кадров : 31,250 кадров/сек (1536 SPF)
Битовая глубина : 16 бит
Метод сжатия : С потерями
Размер потока : 119 Мбайт (1%)
Заголовок : AC-3 Л.Володарский
Язык : Russian
ServiceKind/String : Complete Main
Default : Нет
Forced : Нет

Аудио #5
Идентификатор : 6
Формат : AC-3
Формат/Информация : Audio Coding 3
Параметр Endianness формата : Big
Идентификатор кодека : A_AC3
Продолжительность : 1 ч. 26 м.
Вид битрейта : Постоянный
Битрейт : 192 Кбит/сек
Каналы : 2 канала
Расположение каналов : Front: L R
Частота : 48,0 КГц
Частота кадров : 31,250 кадров/сек (1536 SPF)
Битовая глубина : 16 бит
Метод сжатия : С потерями
Размер потока : 119 Мбайт (1%)
Заголовок : AC-3 Украинский 1+1
Язык : Ukrainian
ServiceKind/String : Complete Main
Default : Нет
Forced : Нет

Аудио #6
Идентификатор : 7
Формат : DTS
Формат/Информация : Digital Theater Systems
Профиль формата : MA / Core
Режим : 16
Параметр Endianness формата : Big
Идентификатор кодека : A_DTS
Продолжительность : 1 ч. 26 м.
Вид битрейта : Переменный / Постоянный
Битрейт : 939 Кбит/сек / 768 Кбит/сек
Каналы : 2 канала
Расположение каналов : Front: L R
Частота : 48,0 КГц
Частота кадров : 93,750 кадра/сек (512 SPF)
Битовая глубина : 24 бит
Метод сжатия : Без потерь / Lossy
Размер потока : 580 Мбайт (3%)
Заголовок : DTS-HD MA Original
Язык : English
Default : Нет
Forced : Нет

Текст #1
Идентификатор : 8
Формат : PGS
Режим смешивания : zlib
Идентификатор кодека : S_HDMV/PGS
Идентификатор кодека/Информация : Picture based subtitle format used on BDs/HD-DVDs
Продолжительность : 1 ч. 25 м.
Битрейт : 9017 бит/сек
ElementCount : 660
Размер потока : 5,54 Мбайт (0%)
Заголовок : English
Язык : English
Default : Да
Forced : Нет

Текст #2
Идентификатор : 9
Формат : PGS
Режим смешивания : zlib
Идентификатор кодека : S_HDMV/PGS
Идентификатор кодека/Информация : Picture based subtitle format used on BDs/HD-DVDs
Продолжительность : 1 ч. 21 м.
Битрейт : 9324 бит/сек
ElementCount : 448
Размер потока : 5,43 Мбайт (0%)
Заголовок : Русские
Язык : Russian
Default : Нет
Forced : Нет



_________________
Проголосуй за трекер Открытый торрент трекер - RUS-MEDIA.ORG

Проголосуй Открытый торрент трекер - RUS-MEDIA.ORG



реклама партнёра


Вернуться к началу
 Профиль Отправить личное сообщение  
 
   Похожие торренты   Автор   Торрент   Размер 
В этой теме нет новых непрочитанных сообщений. Киборг / Cyborg [фантастика, боевик, 1989] BDRip, Dvo

salma3

66 | 18

1.45 ГБ

В этой теме нет новых непрочитанных сообщений. Киборг X / Cyborg X [ужасы, боевик, 2016] WEBDLRip, Mvo

salma3

509 | 31

1.39 ГБ

В этой теме нет новых непрочитанных сообщений. Киборг 2: Стеклянная тень / Cyborg 2: Glass Shadow [http://se.uploads.ru/t/rjAYo.jpg, 1993] WEB-DL 720p, Mvo+Sub

salma3

62 | 2

3.1 ГБ

В этой теме нет новых непрочитанных сообщений. Токсичный мститель 2 / The Toxic Avenger, Part II [фантастика, комедия, боевик, ужасы, приключения, 1989] BDRemux 1080p, Avo+Sub

salma3

13 | 11

23.26 ГБ

В этой теме нет новых непрочитанных сообщений. Сынок / Sonny Boy [боевик, триллер, драма, 1989] BDRemux 1080p, Dvo+Avo+Sub

salma3

6 | 26

23.51 ГБ

В этой теме нет новых непрочитанных сообщений. Кикбоксёр / Kickboxer [Боевик, триллер, спорт, 1989] BDRemux 1080p, Mvo+Dvo+Avo+Sub

salma3

21 | 26

19.22 ГБ

В этой теме нет новых непрочитанных сообщений. Тысячелетие / Миллениум / Прерванный полет / Millennium [фантастика, триллер, драма, детектив, 1989] BDRemux 1080p, Dub+Dvo+Sub

salma3

6 | 5

22.11 ГБ


Начать новую тему Ответить на тему  [ 1 сообщение ] 




Для Мосгорсуда, Роскомнадзора и рекламодателей:: mosgorsud-torrent[собачка]yandex.ru