Торрент файл
скачать торрент магнет ссылка Добавлен: 31 окт 2017, 12:23
Размер: 10.08 ГБ
Сидеров: 32
Личеров: 6
Статус: (salma3)
Автор

СообщениеДобавлено: 31 окт 2017, 12:23 

Не в сети
Супермодератор
Аватара пользователя
Дата регистрации:
15 фев 2012, 16:44
Возраст: 28
Спасибо: 7290 / 2147
Сообщения: 70562
Год выхода: 2017
Жанр: драма, биография
Режиссер: Дестин Креттон

В ролях: Бри Ларсон, Вуди Харрельсон, Наоми Уоттс, Элла Андерсон, Чандлер Хэд, Макс Гринфилд, Джош Барклай Карас, Чарли Шотуэлл, Иэн Армитедж, Сара Снук

О фильме:
Девочка растет в неблагополучной семье нонконформистов-кочевников. Ее мать эксцентричная артистка, а отец — алкоголик. Родители пытаются вселить надежду в ее детское воображение, чтобы хоть как-то отвлечь внимание от бедности.



Страна: США
Продолжительность: 02:07:11
Перевод: Любительский (многоголосый, закадровый) | [КОЛОБОК]

Файл
Качество: BDRip 1080p
Видео: 1920x800, 10.8 Mb/s, 23.976 fps
Звук: 48.0 kHz, AC3 Dolby Digital, 2/0 (L,R) ch, ~448 kbps

ПРИСУТСТВУЕТ РЕКЛАМА

General
Unique ID : 211520324585726810130041225378323675498 (0x9F21552B9AFCBE1888CF699E83BEB96A)
Complete name : D:TorrentThe.Glass.Castle.2017.P.BDRip.1O8Op_KOSHARA.mkv
Format : Matroska
Format version : Version 2
File size : 10.1 GiB
Duration : 2 h 8 min
Overall bit rate mode : Variable
Overall bit rate : 11.3 Mb/s
Encoded date : UTC 2017-10-28 13:04:12
Writing application : mkvmerge v8.3.0 ('Over the Horizon') 64bit
Writing library : libebml v1.3.1 + libmatroska v1.4.2

Video
ID : 2
Format : AVC
Format/Info : Advanced Video Codec
Format profile : High@L4.1
Format settings, CABAC : Yes
Format settings, RefFrames : 5 frames
Codec ID : V_MPEG4/ISO/AVC
Duration : 2 h 8 min
Bit rate mode : Variable
Bit rate : 10.8 Mb/s
Maximum bit rate : 12.0 Mb/s
Width : 1 920 pixels
Height : 800 pixels
Display aspect ratio : 2.40:1
Frame rate mode : Constant
Frame rate : 23.976 (24000/1001) FPS
Standard : Component
Color space : YUV
Chroma subsampling : 4:2:0
Bit depth : 8 bits
Scan type : Progressive
Bits/(Pixel*Frame) : 0.293
Stream size : 9.68 GiB (96%)
Default : Yes
Forced : No
Color range : Limited
Color primaries : BT.709
Transfer characteristics : BT.709
Matrix coefficients : BT.709

Audio
ID : 1
Format : AC-3
Format/Info : Audio Coding 3
Format settings, Endianness : Big
Codec ID : A_AC3
Duration : 2 h 8 min
Bit rate mode : Constant
Bit rate : 448 kb/s
Channel(s) : 2 channels
Channel positions : Front: L R
Sampling rate : 48.0 kHz
Frame rate : 31.250 FPS (1536 SPF)
Bit depth : 16 bits
Compression mode : Lossy
Stream size : 411 MiB (4%)
Service kind : Complete Main
Default : Yes
Forced : No



_________________
Проголосуй за трекер Открытый торрент трекер - RUS-MEDIA.ORG

Проголосуй Открытый торрент трекер - RUS-MEDIA.ORG


Вернуться к началу
 Профиль Отправить личное сообщение  
 
   Похожие торренты   Автор   Торрент   Размер 
В этой теме нет новых непрочитанных сообщений. Стеклянный замок / The Glass Castle [драма, биография, 2017] BDRip 1080p, Avo [iTunes]

salma3

0 | 0

12.07 ГБ

В этой теме нет новых непрочитанных сообщений. Стеклянный замок / The Glass Castle [драма, биография, 2017] BDRip 720p, Mvo

salma3

95 | 14

5.34 ГБ

В этой теме нет новых непрочитанных сообщений. Стеклянный замок / The Glass Castle [драма, биография, 2017] BDRip 720p, Avo [iTunes]

salma3

0 | 0

6.43 ГБ

В этой теме нет новых непрочитанных сообщений. Стеклянный замок / The Glass Castle [драма, биография, 2017] HDRip, Mvo

salma3

129 | 21

1.37 ГБ

В этой теме нет новых непрочитанных сообщений. Стеклянный замок / The Glass Castle [драма, биография, 2017] HDRip, Mvo

salma3

48 | 11

2.05 ГБ

В этой теме нет новых непрочитанных сообщений. Стеклянный замок / The Glass Castle [драма, биография, 2017] HDRip, Mvo [iTunes]

salma3

2 | 4

2.05 ГБ

В этой теме нет новых непрочитанных сообщений. Стеклянный замок / The Glass Castle [драма, биография, 2017] HDRip, Mvo [iTunes]

salma3

18 | 2

1.37 ГБ


Начать новую тему Ответить на тему  [ 1 сообщение ] 




Для Мосгорсуда, Роскомнадзора и рекламодателей:: mosgorsud-torrent[собачка]yandex.ru
cron