Торрент файл
скачать торрент магнет ссылка Добавлен: 30 окт 2017, 16:35
Размер: 27.89 ГБ
Сидеров: 7
Личеров: 3
Статус: (salma3)
Автор

СообщениеДобавлено: 30 окт 2017, 16:35 

Не в сети
Супермодератор
Аватара пользователя
Дата регистрации:
15 фев 2012, 16:44
Возраст: 29
Спасибо: 7328 / 2147
Сообщения: 73609
Год выхода: 2009
Жанр: Мелодрама, комедия
Режиссер: Марк Уэбб

В ролях: Джозеф Гордон-Левитт, Зои Дешанель, Джеффри Аренд, Хлоя Грейс Морец, Мэттью Грэй Габлер, Кларк Грегг, Патриция Белчер, Рэйчел Бостон, Минка Келли, Чарльз Уолкер

О фильме:
Главный герой работает в агентстве, выпускающей поздравительные открытки. Он придумывает все те забавные подписи, которые мы с Вами читаем на них. Молодой человек влюбляется в свою коллегу и решает, что она — «та, единственная». Но 500 дней их отношений показывают герою, что путь к счастью непредсказуем, неконтролируем и — невероятно забавен!



Страна: США
Продолжительность: 01:35:04
Перевод: Дублированный, авторский

Файл
Кодек: MPEG-4 AVC
Качество: BDRemux 1080p
Видео: 34990 Кбит/с, 1920x1080, 23.976 кадр/с
Аудио1: Русский AC3 5.1, 48 KHz, 640 kbps, 16-bit - Дубляж
Аудио2: Английский DTS-HD Master Audio 5.1, 48 KHz, 24 bit, 3405 kbps, Lossless (DTS Core: 5.1, 48 KHz, 24bit, 1536 kbps) - Оригинал
Аудио3: Русский DTS Audio / 5.1 / 48 kHz / 1509 kbps / 24-bit - Дубляж
Аудио3: Русский DTS Audio / 5.1 / 48 kHz / 1509 kbps / 24-bit - Авторский (Матвеев (Doctor Joker))
Субтитры: Русские (с лицензии), русские (AirMike73), русские (надписи и пр.), украинские, английские
Главы: Есть


Золотой глобус, 2010 год
Номинации (2):
Лучший фильм (комедия или мюзикл)
Лучшая мужская роль (комедия или мюзикл) (Джозеф Гордон-Левитт)

General
Unique ID : 245532849984855655419975506746111500797 (0xB8B7E824CF0B8D8BBF6D203DE10521FD)
Complete name : D:\РЕМУКС\500 дней лета.BD.Remux..mkv
Format : Matroska
Format version : Version 2
File size : 27.9 GiB
Duration : 1h 35mn
Overall bit rate mode : Variable
Overall bit rate : 42.0 Mbps
Encoded date : UTC 2015-02-24 16:48:06
Writing application : mkvmerge v5.0.1 ('Es ist Sommer') built on Oct 9 2011 11:55:43
Writing library : libebml v1.2.2 + libmatroska v1.3.0

Video
ID : 1
Format : AVC
Format/Info : Advanced Video Codec
Format profile : High@L4.1
Format settings, CABAC : Yes
Format settings, ReFrames : 4 frames
Muxing mode : Container profile=Unknown@0.0
Codec ID : V_MPEG4/ISO/AVC
Duration : 1h 35mn
Bit rate mode : Variable
Maximum bit rate : 37.0 Mbps
Width : 1 920 pixels
Height : 1 080 pixels
Display aspect ratio : 16:9
Frame rate mode : Constant
Frame rate : 23.976 fps
Color space : YUV
Chroma subsampling : 4:2:0
Bit depth : 8 bits
Scan type : Progressive
Language : English
Default : Yes
Forced : No
Color primaries : BT.709
Transfer characteristics : BT.709
Matrix coefficients : BT.709
Color range : Limited

Audio #1
ID : 2
Format : AC-3
Format/Info : Audio Coding 3
Mode extension : CM (complete main)
Format settings, Endianness : Big
Codec ID : A_AC3
Duration : 1h 35mn
Bit rate mode : Constant
Bit rate : 640 Kbps
Channel(s) : 6 channels
Channel positions : Front: L C R, Side: L R, LFE
Sampling rate : 48.0 KHz
Bit depth : 16 bits
Compression mode : Lossy
Stream size : 435 MiB (2%)
Title : Дубляж асз 640
Language : Russian
Default : Yes
Forced : No

Audio #2
ID : 3
Format : DTS
Format/Info : Digital Theater Systems
Format profile : MA / Core
Mode : 16
Format settings, Endianness : Big
Codec ID : A_DTS
Duration : 1h 35mn
Bit rate mode : Variable
Bit rate : Unknown / 1 509 Kbps
Channel(s) : 6 channels
Channel positions : Front: L C R, Side: L R, LFE
Sampling rate : 48.0 KHz
Bit depth : 24 bits
Compression mode : Lossless / Lossy
Title : DTS-HD Master Audio, 5.1, 3405 kbps, 24 bit, Lossless (1536 kbps core)
Language : English
Default : No
Forced : No

Audio #3
ID : 4
Format : DTS
Format/Info : Digital Theater Systems
Mode : 16
Format settings, Endianness : Big
Codec ID : A_DTS
Duration : 1h 35mn
Bit rate mode : Constant
Bit rate : 1 509 Kbps
Channel(s) : 6 channels
Channel positions : Front: L C R, Side: L R, LFE
Sampling rate : 48.0 KHz
Bit depth : 24 bits
Compression mode : Lossy
Stream size : 1.00 GiB (4%)
Title : Дубляж DTS 1509
Language : Russian
Default : No
Forced : No

Audio #4
ID : 5
Format : DTS
Format/Info : Digital Theater Systems
Mode : 16
Format settings, Endianness : Big
Codec ID : A_DTS
Duration : 1h 35mn
Bit rate mode : Constant
Bit rate : 1 509 Kbps
Channel(s) : 6 channels
Channel positions : Front: L C R, Side: L R, LFE
Sampling rate : 48.0 KHz
Bit depth : 24 bits
Compression mode : Lossy
Stream size : 1.00 GiB (4%)
Title : Rus АП Матвеев (Doctor Joker) 1509
Language : Russian
Default : No
Forced : No

Text #1
ID : 6
Format : UTF-8
Codec ID : S_TEXT/UTF8
Codec ID/Info : UTF-8 Plain Text
Language : Russian
Default : No
Forced : No

Text #2
ID : 7
Format : UTF-8
Codec ID : S_TEXT/UTF8
Codec ID/Info : UTF-8 Plain Text
Title : AirMike73
Language : Russian
Default : No
Forced : No

Text #3
ID : 8
Format : UTF-8
Codec ID : S_TEXT/UTF8
Codec ID/Info : UTF-8 Plain Text
Language : Ukrainian
Default : No
Forced : No

Text #4
ID : 9
Format : UTF-8
Codec ID : S_TEXT/UTF8
Codec ID/Info : UTF-8 Plain Text
Language : English
Default : No
Forced : No

Text #5
ID : 10
Format : UTF-8
Codec ID : S_TEXT/UTF8
Codec ID/Info : UTF-8 Plain Text
Title : Tol'ko nadpisi
Language : Russian
Default : Yes
Forced : No

Menu
00:00:00.000 : en:Main Titles/ The One
00:03:57.779 : en:Consoling Tom
00:07:05.425 : en:Rare Quality
00:09:19.184 : en:Early Days
00:13:34.147 : en:Officially in Love
00:14:22.320 : en:High and Low
00:16:53.429 : en:Office Karaoke
00:19:18.699 : en:Agree to Disagree
00:24:29.927 : en:Progress Report
00:27:00.285 : en:Shopping
00:30:39.755 : en:Keeping it Casual
00:33:27.422 : en:Just Having Fun
00:35:33.506 : en:Lock Up
00:38:14.375 : en:Summer's World
00:43:46.874 : en:Defining Moment
00:52:24.141 : en:Suffering
00:56:47.154 : en:Second Opinion
01:00:26.039 : en:Chance Encounter
01:06:24.731 : en:Expectations/Reality
01:10:49.787 : en:The Cynic
01:15:15.052 : en:Not the One
01:19:00.778 : en:Fresh Start
01:21:22.920 : en:I Just Knew
01:27:08.557 : en:First Day of Autumn/End Titles



_________________
Проголосуй за трекер Открытый торрент трекер - RUS-MEDIA.ORG

Проголосуй Открытый торрент трекер - RUS-MEDIA.ORG


Вернуться к началу
 Профиль Отправить личное сообщение  
 
   Похожие торренты   Автор   Торрент   Размер 
В этой теме нет новых непрочитанных сообщений. 500 дней лета / (500) Days of Summer [мелодрама, комедия, 2009] BDRip 720p, Dub

salma3

14 | 3

4.62 ГБ

В этой теме нет новых непрочитанных сообщений. Летние любовники / Summer lovers [драма, мелодрама, комедия, 1982] BDRemux 1080p, Dvo+Avo+Sub

salma3

8 | 2

25.09 ГБ

В этой теме нет новых непрочитанных сообщений. Эпоха Лета / Age of Summer [Комедия, 2018] WEBRip, Dvo

salma3

0 | 0

1.3 ГБ

В этой теме нет новых непрочитанных сообщений. Эпоха Лета / Age of Summer [Комедия, 2018] WEBRip 720p, Dvo

salma3

0 | 0

2.11 ГБ

В этой теме нет новых непрочитанных сообщений. Лето 42-го / Summer of '42 [драма, мелодрама, комедия, 1971] BDRemux 1080р, Dvo

salma3

8 | 2

27.08 ГБ

В этой теме нет новых непрочитанных сообщений. Бабник / Spread [мелодрама, комедия, 2009] BDRemux 1080p, Dub

salma3

4 | 2

14.58 ГБ

В этой теме нет новых непрочитанных сообщений. Предложение / The Proposal [Мелодрама, комедия, драма, 2009] BDRemux 1080p, Dub

salma3

0 | 0

22.73 ГБ


Начать новую тему Ответить на тему  [ 1 сообщение ] 




Для Мосгорсуда, Роскомнадзора и рекламодателей:: mosgorsud-torrent[собачка]yandex.ru
cron