Торрент файл
скачать торрент магнет ссылка Добавлен: 30 окт 2017, 16:28
Размер: 18.54 ГБ
Сидеров: 11
Личеров: 6
Статус: (salma3)
Автор

СообщениеДобавлено: 30 окт 2017, 16:28 

Не в сети
Супермодератор
Аватара пользователя
Дата регистрации:
15 фев 2012, 16:44
Возраст: 28
Спасибо: 7204 / 2147
Сообщения: 65100
Страна: США, Китай
Студия: Amblin Entertainment, Legendary Pictures
Жанр: фантастика, приключения, боевик
Год выпуска: 2015

Режиссер: Колин Треворроу / Colin Trevorrow
В ролях: Крис Пратт, Брайс Даллас Ховард, Ник Дж. Робинсон, Тай Симпкинс, Винсент Д’Онофрио, Ирфан Кхан, Омар Си, Б.Д. Вонг, Джейк Джонсон, Джуди Грир

Описание: Действие происходит через 22 года после событий Парка Юрского периода. На острове Нублар функционирует парк, задуманный Джоном Хэммондом. Но к этому времени посещаемость уже начинает падать, и компания — владелец парка решает открыть новый аттракцион, чтобы привлечь посетителей. И вот снова тысячи людей спешат увидеть Мир Юрского периода, но безопасное на первый взгляд развлечение может обернуться угрозой для всего человечества...



Продолжительность: 02:04:21
Перевод: дублированный, авторский

Open matte! Видео адаптировано для просмотра на весь экран с соотношением сторон 16:9. Локализованный видеоряд. По сравнению с предыдущей раздачей оптимизирован видеоряд, исправлено несколько поврежденных кадров.

Сэмпл

Тип релиза: WEBRip 1080p
Контейнер: MKV
Видео: x264, 1920x1080 (16:9), ~18.4 Mbps, 23.976 fps
Аудио 1: rus, DTS, 5.1, 48 kHz, 768 kbps (дубляж)
Аудио 2: rus, AC3, 5.1, 48 kHz, 640 kbps (А.Гаврилов)
Аудио 3: eng, DTS, 5.1, 48 kHz, 1509 kbps (оригинал)
Субтитры: русские (форсированные, полные), украинские (форсированные, полные), английские (обычные, SDH)

General
Complete name : Jurassic.World.2015.Open.Matte.1080p.mkv
Format : Matroska
Format version : Version 4 / Version 2
File size : 18.5 GiB
Duration : 2 h 4 min
Overall bit rate : 21.3 Mb/s
Movie name : Jurassic World (2015) Open Matte
Encoded date : UTC 2017-10-30 09:33:45
Writing application : mkvmerge v17.0.0 ('Be Ur Friend') 64-bit
Writing library : libebml v1.3.5 + libmatroska v1.4.8
Cover : Yes
Attachments : cover

Video
ID : 1
Format : AVC
Format/Info : Advanced Video Codec
Format profile : High@L4.1
Format settings, CABAC : Yes
Format settings, RefFrames : 4 frames
Codec ID : V_MPEG4/ISO/AVC
Duration : 2 h 4 min
Bit rate : 18.4 Mb/s
Width : 1 920 pixels
Height : 1 080 pixels
Display aspect ratio : 16:9
Frame rate mode : Constant
Frame rate : 23.976 (24000/1001) FPS
Color space : YUV
Chroma subsampling : 4:2:0
Bit depth : 8 bits
Scan type : Progressive
Bits/(Pixel*Frame) : 0.371
Stream size : 16.0 GiB (86%)
Writing library : x264 core 152 r2851 ba24899
Encoding settings : cabac=1 / ref=4 / deblock=1:-3:-2 / analyse=0x3:0x113 / me=umh / subme=10 / psy=1 / psy_rd=1.10:0.00 / mixed_ref=1 / me_range=48 / chroma_me=1 / trellis=2 / 8x8dct=1 / cqm=0 / deadzone=21,11 / fast_pskip=1 / chroma_qp_offset=-2 / threads=10 / lookahead_threads=1 / sliced_threads=0 / nr=0 / decimate=1 / interlaced=0 / bluray_compat=0 / constrained_intra=0 / bframes=8 / b_pyramid=2 / b_adapt=2 / b_bias=0 / direct=1 / weightb=1 / open_gop=0 / weightp=2 / keyint=250 / keyint_min=23 / scenecut=40 / intra_refresh=0 / rc_lookahead=40 / rc=crf / mbtree=0 / crf=18.4 / qcomp=0.60 / qpmin=0 / qpmax=69 / qpstep=4 / vbv_maxrate=50000 / vbv_bufsize=62500 / crf_max=0.0 / nal_hrd=none / filler=0 / ip_ratio=1.40 / pb_ratio=1.30 / aq=1:1.00
Language : Russian
Default : Yes
Forced : No
Color range : Limited
Color primaries : BT.709
Transfer characteristics : BT.709
Matrix coefficients : BT.709

Audio #1
ID : 2
Format : DTS
Format/Info : Digital Theater Systems
Mode : 16
Format settings, Endianness : Big
Codec ID : A_DTS
Duration : 2 h 4 min
Bit rate mode : Constant
Bit rate : 768 kb/s
Channel(s) : 6 channels
Channel positions : Front: L C R, Side: L R, LFE
Sampling rate : 48.0 kHz
Frame rate : 93.750 FPS (512 SPF)
Bit depth : 24 bits
Compression mode : Lossy
Stream size : 683 MiB (4%)
Title : Dub
Language : Russian
Default : Yes
Forced : No

Audio #2
ID : 3
Format : AC-3
Format/Info : Audio Coding 3
Format settings, Endianness : Big
Codec ID : A_AC3
Duration : 2 h 4 min
Bit rate mode : Constant
Bit rate : 640 kb/s
Channel(s) : 6 channels
Channel positions : Front: L C R, Side: L R, LFE
Sampling rate : 48.0 kHz
Frame rate : 31.250 FPS (1536 SPF)
Bit depth : 16 bits
Compression mode : Lossy
Stream size : 569 MiB (3%)
Title : Gavrilov
Language : Russian
Service kind : Complete Main
Default : No
Forced : No

Audio #3
ID : 4
Format : DTS
Format/Info : Digital Theater Systems
Mode : 16
Format settings, Endianness : Big
Codec ID : A_DTS
Duration : 2 h 4 min
Bit rate mode : Constant
Bit rate : 1 509 kb/s
Channel(s) : 6 channels
Channel positions : Front: L C R, Side: L R, LFE
Sampling rate : 48.0 kHz
Frame rate : 93.750 FPS (512 SPF)
Bit depth : 24 bits
Compression mode : Lossy
Stream size : 1.31 GiB (7%)
Title : Original
Language : English
Default : No
Forced : No

Text #1
ID : 5
Format : UTF-8
Codec ID : S_TEXT/UTF8
Codec ID/Info : UTF-8 Plain Text
Duration : 1 h 39 min
Bit rate : 0 b/s
Count of elements : 17
Stream size : 548 Bytes (0%)
Title : Forced (rus)
Language : Russian
Default : No
Forced : No

Text #2
ID : 6
Format : UTF-8
Codec ID : S_TEXT/UTF8
Codec ID/Info : UTF-8 Plain Text
Duration : 1 h 52 min
Bit rate : 79 b/s
Count of elements : 1226
Stream size : 65.8 KiB (0%)
Title : Full (rus)
Language : Russian
Default : No
Forced : No

Text #3
ID : 7
Format : UTF-8
Codec ID : S_TEXT/UTF8
Codec ID/Info : UTF-8 Plain Text
Duration : 1 h 39 min
Bit rate : 0 b/s
Count of elements : 18
Stream size : 613 Bytes (0%)
Title : Forced (ukr)
Language : Ukrainian
Default : No
Forced : No

Text #4
ID : 8
Format : UTF-8
Codec ID : S_TEXT/UTF8
Codec ID/Info : UTF-8 Plain Text
Duration : 1 h 52 min
Bit rate : 75 b/s
Count of elements : 1227
Stream size : 62.2 KiB (0%)
Title : Full (ukr)
Language : Ukrainian
Default : No
Forced : No

Text #5
ID : 9
Format : UTF-8
Codec ID : S_TEXT/UTF8
Codec ID/Info : UTF-8 Plain Text
Duration : 1 h 52 min
Bit rate : 48 b/s
Count of elements : 1291
Stream size : 39.7 KiB (0%)
Title : Full (eng)
Language : English
Default : No
Forced : No

Text #6
ID : 10
Format : UTF-8
Codec ID : S_TEXT/UTF8
Codec ID/Info : UTF-8 Plain Text
Duration : 1 h 53 min
Bit rate : 52 b/s
Count of elements : 1495
Stream size : 44.1 KiB (0%)
Title : SDH (eng)
Language : English
Default : No
Forced : No

Menu
00:00:00.000 : en:00:00:00.000
00:06:59.169 : en:00:06:59.169
00:11:01.828 : en:00:11:01.828
00:18:28.441 : en:00:18:28.441
00:25:34.867 : en:00:25:34.867
00:31:20.837 : en:00:31:20.837
00:39:23.861 : en:00:39:23.861
00:44:07.854 : en:00:44:07.854
00:48:57.226 : en:00:48:57.226
00:55:51.056 : en:00:55:51.056
01:01:21.344 : en:01:01:21.344
01:09:50.561 : en:01:09:50.561
01:15:25.479 : en:01:15:25.479
01:23:51.860 : en:01:23:51.860
01:30:14.701 : en:01:30:14.701
01:36:45.425 : en:01:36:45.425
01:41:15.653 : en:01:41:15.653
01:47:35.282 : en:01:47:35.282
01:53:06.029 : en:01:53:06.029
01:55:37.556 : en:01:55:37.556


_________________
Проголосуй за трекер Открытый торрент трекер - RUS-MEDIA.ORG

Проголосуй Открытый торрент трекер - RUS-MEDIA.ORG


Вернуться к началу
 Профиль Отправить личное сообщение  
 
   Похожие торренты   Автор   Торрент   Размер 
В этой теме нет новых непрочитанных сообщений. Мир Юрского периода / Jurassic World [фантастика, приключения, боевик, 2015] WEBRip 1080p, Dub [Open Matte]

salma3

12 | 16

20.93 ГБ

В этой теме нет новых непрочитанных сообщений. Мир Юрского периода / Jurassic World (Колин Треворроу) [2015, Фантастика, приключения, боевик , BD-Remux 1080p] [DD5.1] [Dub Rus , Eng]+[Sub Rus , Ukr , Eng]

Враг Нароода

3 | 1

23.57 ГБ

В этой теме нет новых непрочитанных сообщений. Мир Юрского периода / Jurassic World (Колин Треворроу) [фантастика, боевик, триллер, приключения, 2015] BDRip 1080p, Dub [iTunes]

Dracon

2010 | 239

11.63 ГБ

В этой теме нет новых непрочитанных сообщений. Мир Юрского периода / Jurassic World (Колин Треворроу) [фантастика, боевик, триллер, приключения, 2015] BDRip 1080p, Dub [3D-Video | iTunes]

Dracon

19 | 2

9.5 ГБ

В этой теме нет новых непрочитанных сообщений. Мир Юрского периода / Jurassic World (Колин Треворроу) [фантастика, боевик, триллер, приключения, 2015] BDRip 1080p, Dub+Sub [3D-Video | Лицензия]

Dracon

2268 | 224

18.65 ГБ

В этой теме нет новых непрочитанных сообщений. Мир Юрского периода / Jurassic World (Колин Треворроу) [фантастика, боевик, триллер, приключения, 2015] BDRip 1080p, Dub [3D-Video | iTunes]

Dracon

13 | 5

9.49 ГБ

В этой теме нет новых непрочитанных сообщений. Мир Юрского периода / Jurassic World (Колин Треворроу) [фантастика, боевик, триллер, приключения, 2015] DVD5, Dub+Sub

Dracon

244 | 61

4.36 ГБ


Начать новую тему Ответить на тему  [ 1 сообщение ] 




Для Мосгорсуда, Роскомнадзора и рекламодателей:: mosgorsud-torrent[собачка]yandex.ru
cron