Торрент файл
скачать торрент магнет ссылка Добавлен: 29 окт 2017, 22:14
Размер: 27.88 ГБ
Сидеров: 3
Личеров: 3
Статус: (salma3)
Автор

СообщениеДобавлено: 29 окт 2017, 22:14 

Не в сети
Супермодератор
Аватара пользователя
Дата регистрации:
15 фев 2012, 16:44
Возраст: 29
Спасибо: 7333 / 2147
Сообщения: 73912
Год выхода: 2008
Жанр: Драма, мелодрама, приключения
Режиссер: Баз Лурман

В ролях: Хью Джекман, Ши Адамс, Николь Кидман, Эдди Бару, Рэй Баррет, Тони Бэрри, Джамал Беднарз-Металлах, Дамиан Брэдфорд, Брайан Браун, Натин Батлер, Тара Карпентер, Брэндон Уолтерс, Джек Томпсон, Дэвид Уэнэм, Ребекка Чатфайлд

О фильме:
В основе сюжета положена история английской аристократки, получающей в наследство огромное ранчо на севере австралийского материка. Перед началом Второй мировой войны она приезжает в имение для того, чтобы оберечь его от попыток английских скотоводов заполучить ранчо под названием «Faraway Downs» в свою собственность, и сталкивается с необходимостью при помощи героя Джекмена перегнать 1500 голов скота через тысячи миль в город Дарвин. Там двое попадают под массированные бомбардировки со стороны японского Императорского флота.



Страна: США, Великобритания, Австралия
Продолжительность: 02:45:28
Перевод: Дублированный, авторский

Файл
Кодек: MPEG-4 AVC
Качество: BDRemux 1080p
Видео: 19476 Кбит/с, 1920x1080, 23.976 кадр/с
Аудио №1 (ENG): DTS-HD HR 5.1, 48 kHz, 24 bit, 3018 kbps lossless (core: DTS 5.1, 48 kHz, 24 bit, 1536 kbps) - Оригинал
Аудио №2 (RUS): DTS 5.1, 48 kHz, 24 bit, 768 kbps - Дубляж
Аудио №3 (RUS): DD 5.1, 48 kHz, 448 kbps - Авторский (Сербин)
Аудио №4 (UKR): DD 5.1, 48 kHz, 448 kbps - Дубляж
Субтитры: Русские, английские, украинские
Главы: есть

Оскар, 2009 год:

Номинации (1):
* Лучшие костюмы

Сатурн, 2009 год:

Номинации (2):
* Лучший молодой актер/актриса (Брэндон Уолтерс)
* Лучшие костюмы
* Первоначально на главную мужскую роль планировался Рассел Кроу, однако летом 2006 года актёр сделал заявление, что «не собирается заниматься благотворительностью и сниматься за маленькие деньги для большой студии» и выбыл из проекта. Роль затем была предложена Хиту Леджеру, однако тот был вынужден отказаться из-за участия в сиквеле «Бэтмена» («Тёмный рыцарь»).
* Фильм долго оставался без названия, пока 23 ноября 2006 года режиссёр Бэз Лурманн не объявил в эфире одного из австралийских радиошоу название «Австралия». Другими наиболее вероятными названиями были, по его словам, «Great Southern Land» и «Faraway Downs».
* Два жарких месяца фильм снимали в маленьком городке Кунунурра в северной оконечности Западной Австралии, в местности известной как Кимберли (где есть только три города с населением свыше 2000 человек).
* Фильм можно назвать многострадальным, ввиду списка трудностей, пережитых съемочной группой. После 50 лет засухи на выжженные пустоши внезапно обрушились дожди, смыв только что достроенные декорации и задержав начало съемочного процесса. Национальная эпидемия вируса Хендра испортила сезон скачек и привела к введению запретов на перевозку лошадей — та еще беда, если главные герои фильма почти все экранное время проводят в седле. Потом была невероятная жара, когда температура зашкаливала за 48 градусов по Цельсию: медсестры не успевали оказывать помощь участникам съемочной группы, обгоревшим и получившим тепловые удары на солнце, съемки приходилось постоянно прерывать, чтобы занятые в фильме люди и животные могли отдохнуть в тени.
* По окончанию съемок Лурман шутил: «С коровами работать трудно, они мне столько кадров испортили, решив вдруг заняться сексом!»
* В последний момент режиссер картины Баз Лурман изменил финал картины. В одном из них персонаж Хью Джекмана — Дровер должен был погибнуть.
* В сценах с японским авианалетом использовался отснятый материал со съемок «Тора! Тора! Тора!» (1970).
* «Австралия» стала уже вторым проектом, в котором Кидман и Кроу не получилось поработать вместе. Актёры являются давними друзьями, и в 2005 году уже начинали съёмки в романтической драме «Эвкалипт», которая была остановлена по требованию Кроу из-за недостатков сценария.
* 25 января 2007 года было заявлено, что популярный австралийский актёр Дэвид Венхэм (исполнитель роли Фарамира в экранизации «Властелина Колец») сыграет в фильме антагониста, замышляющего отобрать у героини Кидман её ранчо.
* В съемках участвовало более 1500 диких лошадей.

Общее
Уникальный идентификатор : 180908318215790070000929409212884331406 (0x8819ACBAB72B48E5AE8DD1054EB22B8E)
Полное имя : D:\РЕМУКС!!!!!\Австралия.BDRemux..mkv
Формат : Matroska
Версия формата : Version 2
Размер файла : 27,9 Гбайт
Продолжительность : 2 ч. 45 м.
Режим общего битрейта : Переменный
Общий поток : 24,1 Мбит/сек
Название фильма : Australia (2008)
Дата кодирования : UTC 2015-07-12 14:01:06
Программа кодирования : mkvmerge v5.0.1 ('Es ist Sommer') built on Oct 9 2011 11:55:43
Библиотека кодирования : libebml v1.2.2 + libmatroska v1.3.0

Видео
Идентификатор : 1
Формат : AVC
Формат/Информация : Advanced Video Codec
Профиль формата : High@L4.1
Параметр CABAC формата : Да
Параметр ReFrames формата : 4 кадра
Параметр GOP формата : M=3, N=12
Идентификатор кодека : V_MPEG4/ISO/AVC
Продолжительность : 2 ч. 45 м.
Вид битрейта : Переменный
Битрейт : 19,0 Мбит/сек
Максимальный битрейт : 36,5 Мбит/сек
Ширина : 1920 пикселей
Высота : 1080 пикселей
Соотношение сторон : 16:9
Режим частоты кадров : Постоянный
Частота кадров : 23,976 кадра/сек
Цветовое пространство : YUV
Субдискретизация насыщенности : 4:2:0
Битовая глубина : 8 бит
Тип развёртки : Прогрессивная
Бит/(Пиксели*Кадры) : 0.381
Размер потока : 21,9 Гбайт (79%)
Default : Да
Forced : Нет
Основные цвета : BT.709
Характеристики трансфера : BT.709
Коэффициенты матрицы : BT.709

Аудио #1
Идентификатор : 2
Формат : DTS
Формат/Информация : Digital Theater Systems
Профиль формата : HRA / Core
Режим : 16
Параметр Endianness формата : Big
Идентификатор кодека : A_DTS
Продолжительность : 2 ч. 45 м.
Вид битрейта : Постоянный
Битрейт : 3018 Кбит/сек / 1509 Кбит/сек
Каналы : 6 каналов
Расположение каналов : Front: L C R, Side: L R, LFE
Частота : 48,0 КГц
Битовая глубина : 24 бит
Метод сжатия : С потерями
Размер потока : 3,49 Гбайт (13%)
Заголовок : Англ. DTS-HD HR 3018 kbps -оригинал
Язык : English
Default : Нет
Forced : Нет

Аудио #2
Идентификатор : 3
Формат : DTS
Формат/Информация : Digital Theater Systems
Режим : 16
Параметр Endianness формата : Big
Идентификатор кодека : A_DTS
Продолжительность : 2 ч. 45 м.
Вид битрейта : Постоянный
Битрейт : 768 Кбит/сек
Каналы : 6 каналов
Расположение каналов : Front: L C R, Side: L R, LFE
Частота : 48,0 КГц
Битовая глубина : 24 бит
Метод сжатия : С потерями
Размер потока : 909 Мбайт (3%)
Заголовок : Русс.DTS 768 kbps- дубляж
Язык : Russian
Default : Да
Forced : Нет

Аудио #3
Идентификатор : 4
Формат : AC-3
Формат/Информация : Audio Coding 3
Расширение режима : CM (complete main)
Параметр Endianness формата : Big
Идентификатор кодека : A_AC3
Продолжительность : 2 ч. 45 м.
Вид битрейта : Постоянный
Битрейт : 448 Кбит/сек
Каналы : 6 каналов
Расположение каналов : Front: L C R, Side: L R, LFE
Частота : 48,0 КГц
Битовая глубина : 16 бит
Метод сжатия : С потерями
Размер потока : 530 Мбайт (2%)
Заголовок : Русс. АСЗ 448 kbps - АП Сербин
Язык : Russian
Default : Нет
Forced : Нет

Аудио #4
Идентификатор : 5
Формат : AC-3
Формат/Информация : Audio Coding 3
Расширение режима : CM (complete main)
Параметр Endianness формата : Big
Идентификатор кодека : A_AC3
Продолжительность : 2 ч. 45 м.
Вид битрейта : Постоянный
Битрейт : 448 Кбит/сек
Каналы : 6 каналов
Расположение каналов : Front: L C R, Side: L R, LFE
Частота : 48,0 КГц
Битовая глубина : 16 бит
Метод сжатия : С потерями
Размер потока : 530 Мбайт (2%)
Заголовок : Укр. АСЗ 448 kbps -
Язык : Ukrainian
Default : Нет
Forced : Нет

Текст #1
Идентификатор : 6
Формат : UTF-8
Идентификатор кодека : S_TEXT/UTF8
Идентификатор кодека/Информация : UTF-8 Plain Text
Заголовок : Русские
Язык : Russian
Default : Нет
Forced : Нет

Текст #2
Идентификатор : 7
Формат : UTF-8
Идентификатор кодека : S_TEXT/UTF8
Идентификатор кодека/Информация : UTF-8 Plain Text
Заголовок : Русские (надписи)
Язык : Russian
Default : Да
Forced : Да

Текст #3
Идентификатор : 8
Формат : ASS
Идентификатор кодека : S_TEXT/ASS
Идентификатор кодека/Информация : Advanced Sub Station Alpha
Метод сжатия : Без потерь
Заголовок : Английские
Язык : English
Default : Нет
Forced : Нет

Меню
00:00:00.000 : :Chapter 01
00:05:03.886 : :Chapter 02
00:06:08.785 : :Chapter 03
00:16:17.893 : :Chapter 04
00:22:30.557 : :Chapter 05
00:26:59.117 : :Chapter 06
00:32:40.333 : :Chapter 07
00:41:30.613 : :Chapter 08
00:52:23.014 : :Chapter 09
00:57:29.320 : :Chapter 10
01:00:07.520 : :Chapter 11
01:09:48.893 : :Chapter 12
01:14:57.409 : :Chapter 13
01:18:07.099 : :Chapter 14
01:29:32.450 : :Chapter 15
01:38:19.226 : :Chapter 16
01:44:46.655 : :Chapter 17
01:47:32.320 : :Chapter 18
01:54:33.074 : :Chapter 19
01:56:05.583 : :Chapter 20
02:03:37.660 : :Chapter 21
02:08:31.370 : :Chapter 22
02:14:35.108 : :Chapter 23
02:23:16.838 : :Chapter 24
02:33:59.563 : :Chapter 25
02:37:46.415 : :Chapter 26
02:45:28.084 : :Chapter 27



_________________
Проголосуй за трекер Открытый торрент трекер - RUS-MEDIA.ORG

Проголосуй Открытый торрент трекер - RUS-MEDIA.ORG


Вернуться к началу
 Профиль Отправить личное сообщение  
 
   Похожие торренты   Автор   Торрент   Размер 
В этой теме нет новых непрочитанных сообщений. Любовь вне правил / Leatherheads [Драма, мелодрама, комедия, спорт, 2008] BDRemux 1080p, Mvo

salma3

6 | 12

16.92 ГБ

В этой теме нет новых непрочитанных сообщений. Впусти меня / Let the right one in / Låt den rätte komma in [ужасы, драма, мелодрама, 2008] BDRemux 1080p, Mvo

salma3

0 | 19

19.07 ГБ

В этой теме нет новых непрочитанных сообщений. Первый рыцарь / First Knight [Мелодрама, приключения, драма, 1995] BDRemux 1080p, Dub

salma3

3 | 2

28.11 ГБ

В этой теме нет новых непрочитанных сообщений. Голубая Лагуна / The Blue Lagoon [Приключения, драма, мелодрама, 1980] BDRemux 1080p, Dub

salma3

4 | 9

36.84 ГБ

В этой теме нет новых непрочитанных сообщений. Ой, мамочки / Baby Mama [Комедия, мелодрама, 2008] BDRemux 1080p, Mvo

salma3

9 | 11

17.49 ГБ

В этой теме нет новых непрочитанных сообщений. Город Эмбер: Побег / City of Ember [фантастика, фэнтези, приключения, 2008] BDRemux 1080p, Dub [Лицензия]

salma3

20 | 13

14.84 ГБ

В этой теме нет новых непрочитанных сообщений. Солдаты неудачи / Tropic Thunder [Комедия, боевик, приключения, 2008] BDRemux 1080p, Dub [Режиссёрская версия]

salma3

0 | 0

31.71 ГБ


Начать новую тему Ответить на тему  [ 1 сообщение ] 




Для Мосгорсуда, Роскомнадзора и рекламодателей:: mosgorsud-torrent[собачка]yandex.ru
cron