Торрент файл
скачать торрент магнет ссылка Добавлен: 29 окт 2017, 17:23
Размер: 6.1 ГБ
Сидеров: 6
Личеров: 3
Статус: (salma3)
Автор

СообщениеДобавлено: 29 окт 2017, 17:23 

Не в сети
Супермодератор
Аватара пользователя
Дата регистрации:
15 фев 2012, 16:44
Возраст: 29
Спасибо: 7377 / 2147
Сообщения: 75969
Год выхода: 1995
Жанр: боевик, исторический, триллер
Режиссер: Джерри Цукер

В ролях: Шон Коннери, Ричард Гир, Джулия Ормонд, Бен Кросс, Лайам Каннингэм, Кристофер Виллерс, Валентайн Пелка, Колин МакКормак, Ралф Айнесон, Джон Гилгуд, Стюарт Банс, Джейн Роббинс, Жан Мари Коффи, Том Люси, Джон Блейки, Алексис Денисоф, Дэниэл Напрус, Джонатан Кэйк

О фильме:
Ланселот, воин без страха и упрека, прибыл в золотой замок Камелот, чтобы служить великому королю Артуру. Им предстоят грозные сражения, доблесть и слава. Но в Камелоте он находит женщину, без которой не может жить, но которой не в силах обладать — прекрасную Гуиневеру Лионесскую. Она — возлюбленная короля Артура, который защищает ее маленькое королевство от войск черного рыцаря Малаганта. И Первый Рыцарь Ланселот должен сделать выбор — служить своему королю, или предать его во имя любимой…



Страна: США
Продолжительность: 02:13:50
Перевод: Дублированный (Blu-ray CEE)

Файл
Кодек: HEVC x265 10bit
Качество: BDRip-HEVC 1080p
Видео: 1920x1040, 23.976 кадр/сек, 5432 Кбит/сек, (Main 10@L4.1@High), 10bit
Звук:
Аудио1: Русская, AC3 640 Кбит/сек, 6 канала(ов),16bit 48,0 КГц
Аудио2: English, AC3 448 Кбит/сек, 6 канала(ов),16bit 48,0 КГц
Субтитры: Русские, English

General
Unique ID : 209775151255654755812721576732185277336 (0x9DD1397B66088894ACA19EDBA9273398)
Format : Matroska
Format version : Version 4 / Version 2
File size : 6.10 GiB
Duration : 2 h 13 min
Overall bit rate : 6 522 kb/s
Movie name : rip_by_Cthulhu
Encoded date : UTC 2017-10-29 09:58:04
Writing application : mkvmerge v13.0.0 ('The Juggler') 64bit
Writing library : libebml v1.3.4 + libmatroska v1.4.5
Cover : Yes
Attachments : cover.jpg

Video
ID : 1
Format : HEVC
Format/Info : High Efficiency Video Coding
Format profile : Main 10@L4.1@High
Codec ID : V_MPEGH/ISO/HEVC
Duration : 2 h 13 min
Bit rate : 5 432 kb/s
Width : 1 920 pixels
Height : 1 040 pixels
Display aspect ratio : 1.85:1
Frame rate mode : Constant
Frame rate : 23.976 (24000/1001) FPS
Color space : YUV
Chroma subsampling : 4:2:0
Bit depth : 10 bits
Bits/(Pixel*Frame) : 0.113
Stream size : 5.08 GiB (83%)
Writing library : x265 2.5+20-0967d0add97e:[Windows][GCC 7.2.0][64 bit] 10bit
Encoding settings : cpuid=1050111 / frame-threads=4 / numa-pools=4 / wpp / no-pmode / no-pme / no-psnr / no-ssim / log-level=2 / input-csp=1 / input-res=1920x1040 / interlace=0 / total-frames=0 / level-idc=41 / high-tier=1 / uhd-bd=0 / ref=4 / no-allow-non-conformance / no-repeat-headers / annexb / no-aud / no-hrd / info / hash=0 / no-temporal-layers / open-gop / min-keyint=23 / keyint=240 / bframes=10 / b-adapt=2 / b-pyramid / bframe-bias=0 / rc-lookahead=40 / lookahead-slices=4 / scenecut=40 / no-intra-refresh / ctu=64 / min-cu-size=8 / rect / no-amp / max-tu-size=32 / tu-inter-depth=2 / tu-intra-depth=2 / limit-tu=0 / rdoq-level=2 / dynamic-rd=0.00 / no-ssim-rd / signhide / no-tskip / nr-intra=0 / nr-inter=0 / no-constrained-intra / strong-intra-smoothing / max-merge=3 / limit-refs=3 / limit-modes / me=2 / subme=6 / merange=32 / temporal-mvp / weightp / weightb / no-analyze-src-pics / deblock=-3:-3 / no-sao / no-sao-non-deblock / rd=3 / no-early-skip / rskip / no-fast-intra / no-tskip-fast / no-cu-lossless / no-b-intra / no-splitrd-skip / rdpenalty=0 / psy-rd=2.00 / psy-rdoq=0.00 / no-rd-refine / analysis-reuse-mode=0 / no-lossless / cbqpoffs=0 / crqpoffs=0 / rc=crf / crf=19.0 / qcomp=0.60 / qpstep=4 / stats-write=0 / stats-read=0 / vbv-maxrate=50000 / vbv-bufsize=50000 / vbv-init=0.9 / crf-max=0.0 / crf-min=0.0 / ipratio=1.40 / pbratio=1.30 / aq-mode=2 / aq-strength=1.00 / cutree / zone-count=0 / no-strict-cbr / qg-size=32 / no-rc-grain / qpmax=69 / qpmin=0 / no-const-vbv / sar=0 / overscan=0 / videoformat=5 / range=0 / colorprim=2 / transfer=2 / colormatrix=1 / chromaloc=0 / display-window=0 / max-cll=0,0 / min-luma=0 / max-luma=1023 / log2-max-poc-lsb=8 / vui-timing-info / vui-hrd-info / slices=1 / opt-qp-pps / opt-ref-list-length-pps / no-multi-pass-opt-rps / scenecut-bias=0.05 / no-opt-cu-delta-qp / aq-motion / no-hdr / no-hdr-opt / no-dhdr10-opt / analysis-reuse-level=5 / scale-factor=0 / refine-intra=0 / refine-inter=0 / refine-mv=0 / no-limit-sao / ctu-info=0
Language : English
Default : Yes
Forced : Yes
Color range : Limited
Matrix coefficients : BT.709

Audio #1
ID : 2
Format : AC-3
Format/Info : Audio Coding 3
Format settings, Endianness : Big
Codec ID : A_AC3
Duration : 2 h 13 min
Bit rate mode : Constant
Bit rate : 640 kb/s
Channel(s) : 6 channels
Channel positions : Front: L C R, Side: L R, LFE
Sampling rate : 48.0 kHz
Frame rate : 31.250 FPS (1536 SPF)
Bit depth : 16 bits
Compression mode : Lossy
Stream size : 613 MiB (10%)
Language : Russian
Service kind : Complete Main
Default : No
Forced : No

Audio #2
ID : 3
Format : AC-3
Format/Info : Audio Coding 3
Format settings, Endianness : Big
Codec ID : A_AC3
Duration : 2 h 13 min
Bit rate mode : Constant
Bit rate : 448 kb/s
Channel(s) : 6 channels
Channel positions : Front: L C R, Side: L R, LFE
Sampling rate : 48.0 kHz
Frame rate : 31.250 FPS (1536 SPF)
Bit depth : 16 bits
Compression mode : Lossy
Stream size : 429 MiB (7%)
Language : English
Service kind : Complete Main
Default : Yes
Forced : No

Text #1
ID : 4
Format : UTF-8
Codec ID : S_TEXT/UTF8
Codec ID/Info : UTF-8 Plain Text
Duration : 2 h 5 min
Bit rate : 41 b/s
Count of elements : 672
Stream size : 38.2 KiB (0%)
Language : Russian
Default : Yes
Forced : No

Text #2
ID : 5
Format : UTF-8
Codec ID : S_TEXT/UTF8
Codec ID/Info : UTF-8 Plain Text
Duration : 2 h 4 min
Bit rate : 34 b/s
Count of elements : 908
Stream size : 31.3 KiB (0%)
Language : English
Default : No
Forced : No

Menu
00:00:00.000 : en:00:00:00.000
00:09:44.876 : en:00:09:44.876
00:17:37.848 : en:00:17:37.848
00:23:41.629 : en:00:23:41.629
00:35:41.348 : en:00:35:41.348
00:39:03.424 : en:00:39:03.424
00:44:37.925 : en:00:44:37.925
00:52:44.536 : en:00:52:44.536
00:58:16.201 : en:00:58:16.201
01:07:06.439 : en:01:07:06.439
01:18:26.243 : en:01:18:26.243
01:27:07.472 : en:01:27:07.472
01:37:27.759 : en:01:37:27.759
01:46:03.232 : en:01:46:03.232
01:52:08.931 : en:01:52:08.931
01:58:32.647 : en:01:58:32.647


Релиз от: Cthulhu


_________________
Проголосуй за трекер Открытый торрент трекер - RUS-MEDIA.ORG

Проголосуй Открытый торрент трекер - RUS-MEDIA.ORG


Вернуться к началу
 Профиль Отправить личное сообщение  
 
   Похожие торренты   Автор   Торрент   Размер 
В этой теме нет новых непрочитанных сообщений. Первый рыцарь / First Knight [Боевик, триллер, мелодрама, приключения, 1995] BDRip 1080p, Dub+4Mvo+Dvo+Avo+Sub

salma3

17 | 41

16.02 ГБ

В этой теме нет новых непрочитанных сообщений. Первый рыцарь / First Knight [боевик, триллер, мелодрама, 1995] HDRip, Dub [Лицензия]

salma3

37 | 13

1.45 ГБ

В этой теме нет новых непрочитанных сообщений. Первый рыцарь / First Knight [Мелодрама, приключения, драма, 1995] BDRemux 1080p, Dub

salma3

3 | 2

28.11 ГБ

В этой теме нет новых непрочитанных сообщений. Трансформеры: Последний рыцарь / Transformers: The Last Knight [Фантастика, боевик, триллер, 2017] BDRip-HEVC 2160p, Dub [IMAX edition]

salma3

15 | 14

21.93 ГБ

В этой теме нет новых непрочитанных сообщений. Трансформеры: Последний рыцарь / Transformers: The Last Knight [фантастика, боевик, триллер, 2017] BDRip 1080p, Dub+Sub [Лицензия]

salma3

106 | 22

17.59 ГБ

В этой теме нет новых непрочитанных сообщений. Трансформеры: Последний рыцарь / Transformers: The Last Knight [Фантастика, Боевик, Триллер, Приключения, 2017] BDRip 1080p, Dub [3D-Video] [iTunes]

salma3

217 | 257

19.13 ГБ

В этой теме нет новых непрочитанных сообщений. Трансформеры: Последний рыцарь / Transformers: The Last Knight [Фантастика, боевик, триллер, 2017] BDRip 1080p, Dub [3D-Video] [Лицензия] [IMAX Edition]

salma3

36 | 6

16.28 ГБ


Начать новую тему Ответить на тему  [ 1 сообщение ] 




Для Мосгорсуда, Роскомнадзора и рекламодателей:: mosgorsud-torrent[собачка]yandex.ru
cron