Торрент файл
скачать торрент магнет ссылка Добавлен: 29 окт 2017, 17:23
Размер: 6.85 ГБ
Сидеров: 11
Личеров: 0
Статус: (salma3)
Автор

СообщениеДобавлено: 29 окт 2017, 17:23 

Не в сети
Супермодератор
Аватара пользователя
Дата регистрации:
15 фев 2012, 16:44
Возраст: 29
Спасибо: 7331 / 2147
Сообщения: 73810
Год выхода: 1981
Жанр: Мелодрама, комедия, приключения
Режиссер: Мартин Ритт

В ролях: Салли Филд, Томми Ли Джонс, Дэвид Кит, Мириам Колон, Майкл В. Гаццо, Дэн Шор, М. Эммет Уолш, Барбара Бэбкок, Нелл Картер, Алекс Колон, Ли де Бру, Ральф Сеймур, Ройс Д. Эпплгейт, Брюс М. Фишер, Джон Деннис Джонстон, Дон ’Красный’ Бэрри, Билли Джейн, Эрик Ланёвилль, Брайан Фришмен, Дайан Соммерфилд, Генри Слейт, Мэттью Кэмпион, Тони Гэниос

О фильме:
Двое странствующих проделывают путь из Мобила (штат Алабама) в Калифорнию, пробираясь окольными дорогами по югу США.



Страна: США
Продолжительность: 01:34:46
Перевод: Авторский (одноголосый закадровый) [Алексей Багичев]

Файл
Кодек: x264
Качество: BDRip 1080p
Видео: MPEG-4 AVC, 9616 Кбит/с, 1920x816, 23.976 кадр/с
Звук:
Аудио#1: Russian AC3, 48.0 khz, 6 ch, 448 kbps - AVO, [А.Багичев]
Аудио#2: English FLAC, 48.0 khz, 2 ch, 281 kbps - Оригинал (английский)
Субтитры: Английские

General
Unique ID : 236559327480651212340671041606587857123 (0xB1F7AB53701157C397E27989067D38E3)
Complete name : I:Back.Roads.1981.AVO.BDRip.1080p.x264.Rus.Eng.mkv
Format : Matroska
Format version : Version 4 / Version 2
File size : 6.85 GiB
Duration : 1 h 34 min
Overall bit rate mode : Variable
Overall bit rate : 10.3 Mb/s
Encoded date : UTC 2017-10-29 08:26:22
Writing application : mkvmerge v8.3.0 ('Over the Horizon') 32bit
Writing library : libebml v1.3.1 + libmatroska v1.4.2
Attachments : poster.jpg

Video
ID : 1
Format : AVC
Format/Info : Advanced Video Codec
Format profile : High@L4.1
Format settings, CABAC : Yes
Format settings, ReFrames : 5 frames
Codec ID : V_MPEG4/ISO/AVC
Duration : 1 h 34 min
Bit rate : 9 616 kb/s
Width : 1 920 pixels
Height : 816 pixels
Display aspect ratio : 2.35:1
Frame rate mode : Constant
Frame rate : 23.976 (24000/1001) FPS
Color space : YUV
Chroma subsampling : 4:2:0
Bit depth : 8 bits
Scan type : Progressive
Bits/(Pixel*Frame) : 0.256
Stream size : 6.37 GiB (93%)
Writing library : x264 core 152 r2851 ba24899
Encoding settings : cabac=1 / ref=5 / deblock=1:-3:-3 / analyse=0x3:0x113 / me=umh / subme=8 / psy=1 / psy_rd=1.00:0.25 / mixed_ref=1 / me_range=24 / chroma_me=1 / trellis=1 / 8x8dct=1 / cqm=0 / deadzone=21,11 / fast_pskip=1 / chroma_qp_offset=-4 / threads=25 / lookahead_threads=4 / sliced_threads=0 / nr=0 / decimate=1 / interlaced=0 / bluray_compat=0 / constrained_intra=0 / bframes=3 / b_pyramid=2 / b_adapt=1 / b_bias=0 / direct=3 / weightb=1 / open_gop=0 / weightp=2 / keyint=240 / keyint_min=24 / scenecut=40 / intra_refresh=0 / rc_lookahead=50 / rc=2pass / mbtree=1 / bitrate=9616 / ratetol=1.0 / qcomp=0.60 / qpmin=0 / qpmax=69 / qpstep=4 / cplxblur=20.0 / qblur=0.5 / ip_ratio=1.40 / aq=1:0.75
Language : English
Default : Yes
Forced : No

Audio #1
ID : 2
Format : AC-3
Format/Info : Audio Coding 3
Format settings, Endianness : Big
Codec ID : A_AC3
Duration : 1 h 34 min
Bit rate mode : Constant
Bit rate : 448 kb/s
Channel(s) : 6 channels
Channel positions : Front: L C R, Side: L R, LFE
Sampling rate : 48.0 kHz
Frame rate : 31.250 FPS (1536 spf)
Bit depth : 16 bits
Compression mode : Lossy
Stream size : 303 MiB (4%)
Title : Авторский одноголосый (Алексей Багичев)
Language : Russian
Service kind : Complete Main
Default : Yes
Forced : No

Audio #2
ID : 3
Format : FLAC
Format/Info : Free Lossless Audio Codec
Codec ID : A_FLAC
Duration : 1 h 34 min
Bit rate mode : Variable
Bit rate : 281 kb/s
Channel(s) : 2 channels
Channel positions : Front: L R
Sampling rate : 48.0 kHz
Frame rate : 11.719 FPS (4096 spf)
Bit depth : 16 bits
Stream size : 190 MiB (3%)
Title : Original
Writing library : libFLAC 1.2.1 (UTC 2007-09-17)
Language : English
Default : No
Forced : No

Text
ID : 4
Format : UTF-8
Codec ID : S_TEXT/UTF8
Codec ID/Info : UTF-8 Plain Text
Duration : 1 h 28 min
Bit rate : 46 b/s
Count of elements : 814
Stream size : 30.4 KiB (0%)
Language : English
Default : No
Forced : No

Menu
00:00:00.000 : en:00:00:00.000
00:14:56.929 : en:00:14:56.929
00:25:22.321 : en:00:25:22.321
00:41:33.257 : en:00:41:33.257
00:52:40.491 : en:00:52:40.491
01:03:06.082 : en:01:03:06.082
01:12:10.159 : en:01:12:10.159
01:21:15.404 : en:01:21:15.404



_________________
Проголосуй за трекер Открытый торрент трекер - RUS-MEDIA.ORG

Проголосуй Открытый торрент трекер - RUS-MEDIA.ORG


Вернуться к началу
 Профиль Отправить личное сообщение  
 
   Похожие торренты   Автор   Торрент   Размер 
В этой теме нет новых непрочитанных сообщений. Проселочные дороги / Back Roads [Мелодрама, комедия, приключения, 1981] DVDRip, Avo

salma3

141 | 36

1.37 ГБ

В этой теме нет новых непрочитанных сообщений. Современный роман / Modern Romance [Комедия, мелодрама, 1981] BDRip 1080p, Dvo

salma3

0 | 0

6.68 ГБ

В этой теме нет новых непрочитанных сообщений. Сила пятерых / Force: Five [Боевик, драма, приключения, 1981] BDRip 1080p, Avo

salma3

86 | 40

7.73 ГБ

В этой теме нет новых непрочитанных сообщений. Ушко иголки / Eye of the Needle [Триллер, мелодрама, военный, 1981] BDRip 1080p, Dvo

salma3

14 | 5

13.63 ГБ

В этой теме нет новых непрочитанных сообщений. Приключения Джо Грязнули / Joe Dirt [Комедия, мелодрама, приключения, детектив, 2001] BDRip 1080p, Mvo

salma3

37 | 5

8.14 ГБ

В этой теме нет новых непрочитанных сообщений. Туз / Asso [комедия, 1981] BDRip 1080p, Mvo+Avo

salma3

125 | 70

9.78 ГБ

В этой теме нет новых непрочитанных сообщений. Преследование Д. Б. Купера / The Pursuit of D.B. Cooper [Комедия, приключения, 1981] WEB-DL 1080p, Mvo

salma3

0 | 0

10.09 ГБ


Начать новую тему Ответить на тему  [ 1 сообщение ] 




Для Мосгорсуда, Роскомнадзора и рекламодателей:: mosgorsud-torrent[собачка]yandex.ru
cron