Торрент файл
скачать торрент магнет ссылка Добавлен: 29 окт 2017, 15:24
Размер: 4.16 ГБ
Сидеров: 10
Личеров: 2
Статус: (salma3)
Автор

СообщениеДобавлено: 29 окт 2017, 15:24 

Не в сети
Супермодератор
Аватара пользователя
Дата регистрации:
15 фев 2012, 16:44
Возраст: 29
Спасибо: 7377 / 2147
Сообщения: 75752
Год выхода: 2011
Жанр: Комедия
Режиссер: Стефан Эллиотт

В ролях: Ксавьер Сэмюэл, Крис Маршалл, Кевин Бишоп, Тим Драксл, Лаура Брент, Ребел Уилсон, Оливия Ньютон-Джон, Джонатан Биггинс, Стив Ле Маркванд

О фильме:
Как празднуют свадьбу в Австралии? Да круче, чем новый год в России. Шикарная церемония, море алкоголя и тройка верных друзей, решивших оторваться на полную катушку. Сможет ли настоящая любовь пережить эти испытания?



Выпущено: США, Великобритания, Австралия
Продолжительность: 01:36:32
Озвучивание: Дублированное

Файл
Качество: BDRip 1080p
Видео: AVC/H.264, ~6000 Kbps, 1920x800
Аудио: AC3 5.1, 256 Kbps

General
Unique ID : 207692165232569877883596830853820801127 (0x9C400E579015CA059C0D9B563A076067)
Complete name : A Few Best Men.mkv
Format : Matroska
Format version : Version 2
File size : 4.16 GiB
Duration : 1h 36mn
Overall bit rate : 6 173 Kbps
Movie name : Свадебный разгром (rip by smithland)
Encoded date : UTC 2012-06-14 23:16:58
Writing application : mkvmerge v5.6.0 ('Kenya Kane')
Writing library : libebml v1.2.3 + libmatroska v1.3.0
Attachment : Yes

Video
ID : 1
Format : AVC
Format/Info : Advanced Video Codec
Format profile : High@L4.1
Format settings, CABAC : Yes
Format settings, ReFrames : 6 frames
Codec ID : V_MPEG4/ISO/AVC
Duration : 1h 36mn
Bit rate : 6 000 Kbps
Width : 1 920 pixels
Height : 800 pixels
Display aspect ratio : 2.40:1
Frame rate : 23.976 fps
Color space : YUV
Chroma subsampling : 4:2:0
Bit depth : 8 bits
Scan type : Progressive
Bits/(Pixel*Frame) : 0.163
Stream size : 3.91 GiB (94%)
Writing library : x264 core 119 r2106 07efeb4
Encoding settings : cabac=1 / ref=6 / deblock=1:-1:0 / analyse=0x3:0x133 / me=umh / subme=9 / psy=1 / psy_rd=1.15:0.30 / mixed_ref=1 / me_range=24 / chroma_me=1 / trellis=1 / 8x8dct=1 / cqm=0 / deadzone=21,11 / fast_pskip=0 / chroma_qp_offset=-4 / threads=6 / sliced_threads=0 / nr=0 / decimate=0 / interlaced=0 / bluray_compat=0 / constrained_intra=0 / bframes=4 / b_pyramid=2 / b_adapt=1 / b_bias=0 / direct=3 / weightb=1 / open_gop=1 / weightp=2 / keyint=250 / keyint_min=23 / scenecut=40 / intra_refresh=0 / rc_lookahead=50 / rc=abr / mbtree=1 / bitrate=6000 / ratetol=1.0 / qcomp=0.60 / qpmin=0 / qpmax=69 / qpstep=4 / ip_ratio=1.40 / aq=1:1.00
Language : Russian
Default : Yes
Forced : Yes
Color primaries : Generic film

Audio
ID : 2
Format : AC-3
Format/Info : Audio Coding 3
Mode extension : CM (complete main)
Format settings, Endianness : Big
Codec ID : A_AC3
Duration : 1h 36mn
Bit rate mode : Constant
Bit rate : 256 Kbps
Channel(s) : 6 channels
Channel positions : Front: L C R, Side: L R, LFE
Sampling rate : 48.0 KHz
Bit depth : 16 bits
Compression mode : Lossy
Stream size : 177 MiB (4%)
Language : Russian
Default : Yes
Forced : Yes


_________________
Проголосуй за трекер Открытый торрент трекер - RUS-MEDIA.ORG

Проголосуй Открытый торрент трекер - RUS-MEDIA.ORG


Вернуться к началу
 Профиль Отправить личное сообщение  
 
   Похожие торренты   Автор   Торрент   Размер 
В этой теме нет новых непрочитанных сообщений. Свадебный разгром / A Few Best Men [Комедия, 2011] HDRip-AVC, Dub

salma3

8 | 2

746.47 МБ

В этой теме нет новых непрочитанных сообщений. Свадебный банкет / The Wedding Banquet [драма, мелодрама, комедия, 1993] BDRip 1080p, Avo

salma3

9 | 5

11.17 ГБ

В этой теме нет новых непрочитанных сообщений. Свадебный угар / Mike and Dave Need Wedding Dates [Комедия, мелодрама, приключения, 2016] BDRip 1080p, dub [Лицензия]

marya111

350 | 122

11.93 ГБ

В этой теме нет новых непрочитанных сообщений. Послесвадебный разгром / A Few Less Men [комедия, 2017] WEB-DL 1080p, Dub [iTunes]

salma3

1173 | 457

3.37 ГБ

В этой теме нет новых непрочитанных сообщений. Свадебный переполох / The Wedding Planner [мелодрама, комедия, 2001] BDRip, Dub

salma3

3 | 12

1.46 ГБ

В этой теме нет новых непрочитанных сообщений. Свадебный банкет / The Wedding Banquet / Xi yan [драма, мелодрама, комедия, 1993] BDRemux 1080p, Avo

salma3

0 | 7

28.29 ГБ

В этой теме нет новых непрочитанных сообщений. Свадебный угар / Mike and Dave Need Wedding Dates [мелодрама, комедия, приключения, 2016) BDRip, Dub [Лицензия]

marya111

582 | 76

1.46 ГБ


Начать новую тему Ответить на тему  [ 1 сообщение ] 




Для Мосгорсуда, Роскомнадзора и рекламодателей:: mosgorsud-torrent[собачка]yandex.ru
cron