Торрент файл
скачать торрент магнет ссылка Добавлен: 27 окт 2017, 21:10
Размер: 6.99 ГБ
Сидеров: 10
Личеров: 3
Статус: (salma3)
Автор

СообщениеДобавлено: 27 окт 2017, 21:10 

Не в сети
Супермодератор
Аватара пользователя
Дата регистрации:
15 фев 2012, 16:44
Возраст: 28
Спасибо: 7061 / 2147
Сообщения: 59247
Год выхода: 2003
Жанр: Комедия
Режиссер: Стив Карр

В ролях: Эдди Мёрфи, Стив Зан, Джефф Гарлин, Реджина Кинг, Анжелика Хьюстон, Кевин Нилон, Джонатан Кац, Шиван Фэллон,

О фильме:
Чарли и Фила увольняют с работы в крупной корпорации. Теперь им самим придётся сидеть со своими сыновьями, так как оплачивать счета дорогостоящего детского центра уже не на что. Промучившись пару недель со своими отпрысками, папаши так увлекаются этим делом, что решают поставить дело на деловые рельсы и открывают новый центр дневного пребывания для детей. Чарли и Филл находят всё новые и новые нетрадиционные и забавные способы воспитательного воздействия на малышей, и центр «Дежурный папа» становится всё более популярным. Почувствовав жёсткое соперничество со стороны усатых няней, директриса дорогого детского центра решает выжить конкурентов-новичков из бизнеса.



Страна: США
Продолжительность: 01:32:31
Перевод: Дублированный, Профессиональный многоголосый, профессиональный двухголосый, авторский

Файл
Кодек: h.264
Качество: WEB-DLRip 720p
Видео: MPEG-4 AVC, 8000 Кбит/с, 1280x720, 23,976 кадр/с
Звук:
Русский (AC3, 6 ch, 448 Кбит/с) / Дублированный (R5)
Русский (AC3, 6 ch, 384 Кбит/с) / Профессиональный многоголосый
Русский (AC3, 6 ch, 448 Кбит/с) / Двухголосый закадровый, П.Гланц и И.Королева
Русский (AC3, 6 ch, 448 Кбит/с) / Авторский, М.Чадов
Русский (AC3, 6 ch, 448 Кбит/с) / Авторский, А.Карповский
Украинский (AC3, 2 ch, 192 Кбит/с) / Многоголосый закадровый, Новый канал
Английский (AC3, 6 ch, 448 Кбит/с)
Субтитры: Русские, английские

Семпл

General
Unique ID : 188771948432470398769903372452131844837 (0x8E0427A1EEAF6AB69C7E111F835532E5)
Complete name : D:uTorrentDezhurnyi.papa.2003.WEB-DLRip.720p.MediaClub.mkv
Format : Matroska
Format version : Version 4 / Version 2
File size : 6.99 GiB
Duration : 1 h 32 min
Overall bit rate : 10.8 Mb/s
Encoded date : UTC 2017-10-27 14:01:28 / UTC 2017-10-17T23:46:43Z
Writing application : mkvmerge v17.0.0 ('Be Ur Friend') 64-bit
Writing library : libebml v1.3.5 + libmatroska v1.4.8 / Lavf57.7.2

Video
ID : 1
Format : AVC
Format/Info : Advanced Video Codec
Format profile : High@L4.1
Format settings, CABAC : Yes
Format settings, ReFrames : 9 frames
Codec ID : V_MPEG4/ISO/AVC
Duration : 1 h 32 min
Bit rate : 8 000 kb/s
Width : 1 280 pixels
Height : 720 pixels
Display aspect ratio : 16:9
Frame rate mode : Constant
Frame rate : 23.976 (24000/1001) FPS
Color space : YUV
Chroma subsampling : 4:2:0
Bit depth : 8 bits
Scan type : Progressive
Bits/(Pixel*Frame) : 0.362
Stream size : 5.03 GiB (72%)
Title : WEB-DLRip by Silverok
Writing library : x264 core 148 r2708 86b7198
Encoding settings : cabac=1 / ref=9 / deblock=1:-3:-3 / analyse=0x3:0x113 / me=umh / subme=11 / psy=1 / psy_rd=1.00:0.00 / mixed_ref=1 / me_range=24 / chroma_me=1 / trellis=2 / 8x8dct=1 / cqm=0 / deadzone=21,11 / fast_pskip=1 / chroma_qp_offset=-2 / threads=12 / lookahead_threads=1 / sliced_threads=0 / nr=0 / decimate=0 / interlaced=0 / bluray_compat=0 / constrained_intra=0 / bframes=10 / b_pyramid=2 / b_adapt=1 / b_bias=0 / direct=1 / weightb=1 / open_gop=0 / weightp=2 / keyint=240 / keyint_min=24 / scenecut=40 / intra_refresh=0 / rc_lookahead=40 / rc=2pass / mbtree=1 / bitrate=8000 / ratetol=1.0 / qcomp=0.60 / qpmin=0 / qpmax=69 / qpstep=4 / cplxblur=20.0 / qblur=0.5 / vbv_maxrate=62500 / vbv_bufsize=78125 / nal_hrd=none / filler=0 / ip_ratio=1.40 / aq=1:1.00
Default : Yes
Forced : No
Color range : Limited
Color primaries : BT.709
Transfer characteristics : BT.709
Matrix coefficients : BT.709
Statistics Tags Issue : mkvmerge v17.0.0 ('Be Ur Friend') 64-bit 2017-10-27 14:01:28 / mkvmerge v17.0.0 ('Be Ur Friend') 64-bit 2017-10-27 14:01:28 / UTC 2017-10-17T23:46:43Z
FromStats_BitRate : 7997440
FromStats_Duration : 01:32:30.796000000
FromStats_FrameCount : 133086
FromStats_StreamSize : 5549020112

Audio #1
ID : 2
Format : AC-3
Format/Info : Audio Coding 3
Format settings, Endianness : Big
Codec ID : A_AC3
Duration : 1 h 32 min
Bit rate mode : Constant
Bit rate : 448 kb/s
Channel(s) : 6 channels
Channel positions : Front: L C R, Side: L R, LFE
Sampling rate : 48.0 kHz
Frame rate : 31.250 FPS (1536 spf)
Bit depth : 16 bits
Compression mode : Lossy
Stream size : 296 MiB (4%)
Title : Дубляж, R5
Language : Russian
Service kind : Complete Main
Default : Yes
Forced : No
Statistics Tags Issue : mkvmerge v17.0.0 ('Be Ur Friend') 64-bit 2017-10-27 14:01:28 / mkvmerge v17.0.0 ('Be Ur Friend') 64-bit 2017-10-27 14:01:28 / UTC 2017-10-17T23:46:43Z
FromStats_BitRate : 448000
FromStats_Duration : 01:32:31.616000000
FromStats_FrameCount : 173488
FromStats_StreamSize : 310890496

Audio #2
ID : 3
Format : AC-3
Format/Info : Audio Coding 3
Format settings, Endianness : Big
Codec ID : A_AC3
Duration : 1 h 32 min
Bit rate mode : Constant
Bit rate : 384 kb/s
Channel(s) : 6 channels
Channel positions : Front: L C R, Side: L R, LFE
Sampling rate : 48.0 kHz
Frame rate : 31.250 FPS (1536 spf)
Bit depth : 16 bits
Compression mode : Lossy
Stream size : 254 MiB (4%)
Title : Многоголосый закадровый
Language : Russian
Service kind : Complete Main
Default : No
Forced : No
Statistics Tags Issue : mkvmerge v17.0.0 ('Be Ur Friend') 64-bit 2017-10-27 14:01:28 / mkvmerge v17.0.0 ('Be Ur Friend') 64-bit 2017-10-27 14:01:28 / UTC 2017-10-17T23:46:43Z
FromStats_BitRate : 384000
FromStats_Duration : 01:32:30.848000000
FromStats_FrameCount : 173464
FromStats_StreamSize : 266440704

Audio #3
ID : 4
Format : AC-3
Format/Info : Audio Coding 3
Format settings, Endianness : Big
Codec ID : A_AC3
Duration : 1 h 32 min
Bit rate mode : Constant
Bit rate : 448 kb/s
Channel(s) : 6 channels
Channel positions : Front: L C R, Side: L R, LFE
Sampling rate : 48.0 kHz
Frame rate : 31.250 FPS (1536 spf)
Bit depth : 16 bits
Compression mode : Lossy
Stream size : 296 MiB (4%)
Title : Двухголосый закадровый, П.Гланц и И.Королева
Language : Russian
Service kind : Complete Main
Default : No
Forced : No
Statistics Tags Issue : mkvmerge v17.0.0 ('Be Ur Friend') 64-bit 2017-10-27 14:01:28 / mkvmerge v17.0.0 ('Be Ur Friend') 64-bit 2017-10-27 14:01:28 / UTC 2017-10-17T23:46:43Z
FromStats_BitRate : 448000
FromStats_Duration : 01:32:30.816000000
FromStats_FrameCount : 173463
FromStats_StreamSize : 310845696

Audio #4
ID : 5
Format : AC-3
Format/Info : Audio Coding 3
Format settings, Endianness : Big
Codec ID : A_AC3
Duration : 1 h 32 min
Bit rate mode : Constant
Bit rate : 448 kb/s
Channel(s) : 6 channels
Channel positions : Front: L C R, Side: L R, LFE
Sampling rate : 48.0 kHz
Frame rate : 31.250 FPS (1536 spf)
Bit depth : 16 bits
Compression mode : Lossy
Stream size : 296 MiB (4%)
Title : Авторский, М.Чадов
Language : Russian
Service kind : Complete Main
Default : No
Forced : No
Statistics Tags Issue : mkvmerge v17.0.0 ('Be Ur Friend') 64-bit 2017-10-27 14:01:28 / mkvmerge v17.0.0 ('Be Ur Friend') 64-bit 2017-10-27 14:01:28 / UTC 2017-10-17T23:46:43Z
FromStats_BitRate : 448000
FromStats_Duration : 01:32:30.816000000
FromStats_FrameCount : 173463
FromStats_StreamSize : 310845696

Audio #5
ID : 6
Format : AC-3
Format/Info : Audio Coding 3
Format settings, Endianness : Big
Codec ID : A_AC3
Duration : 1 h 32 min
Bit rate mode : Constant
Bit rate : 448 kb/s
Channel(s) : 6 channels
Channel positions : Front: L C R, Side: L R, LFE
Sampling rate : 48.0 kHz
Frame rate : 31.250 FPS (1536 spf)
Bit depth : 16 bits
Compression mode : Lossy
Stream size : 296 MiB (4%)
Title : Авторский, А.Карповский
Language : Russian
Service kind : Complete Main
Default : No
Forced : No
Statistics Tags Issue : mkvmerge v17.0.0 ('Be Ur Friend') 64-bit 2017-10-27 14:01:28 / mkvmerge v17.0.0 ('Be Ur Friend') 64-bit 2017-10-27 14:01:28 / UTC 2017-10-17T23:46:43Z
FromStats_BitRate : 448000
FromStats_Duration : 01:32:30.816000000
FromStats_FrameCount : 173463
FromStats_StreamSize : 310845696

Audio #6
ID : 7
Format : AC-3
Format/Info : Audio Coding 3
Format settings, Endianness : Big
Codec ID : A_AC3
Duration : 1 h 32 min
Bit rate mode : Constant
Bit rate : 192 kb/s
Channel(s) : 2 channels
Channel positions : Front: L R
Sampling rate : 48.0 kHz
Frame rate : 31.250 FPS (1536 spf)
Bit depth : 16 bits
Compression mode : Lossy
Stream size : 127 MiB (2%)
Title : Многоголосый закадровый, Новый канал
Language : Ukrainian
Service kind : Complete Main
Default : No
Forced : No
Statistics Tags Issue : mkvmerge v17.0.0 ('Be Ur Friend') 64-bit 2017-10-27 14:01:28 / mkvmerge v17.0.0 ('Be Ur Friend') 64-bit 2017-10-27 14:01:28 / UTC 2017-10-17T23:46:43Z
FromStats_BitRate : 192000
FromStats_Duration : 01:32:30.784000000
FromStats_FrameCount : 173462
FromStats_StreamSize : 133218816

Audio #7
ID : 8
Format : AC-3
Format/Info : Audio Coding 3
Format settings, Endianness : Big
Codec ID : A_AC3
Duration : 1 h 32 min
Bit rate mode : Constant
Bit rate : 448 kb/s
Channel(s) : 6 channels
Channel positions : Front: L C R, Side: L R, LFE
Sampling rate : 48.0 kHz
Frame rate : 31.250 FPS (1536 spf)
Bit depth : 16 bits
Compression mode : Lossy
Stream size : 296 MiB (4%)
Language : English
Service kind : Complete Main
Default : No
Forced : No
Statistics Tags Issue : mkvmerge v17.0.0 ('Be Ur Friend') 64-bit 2017-10-27 14:01:28 / mkvmerge v17.0.0 ('Be Ur Friend') 64-bit 2017-10-27 14:01:28 / UTC 2017-10-17T23:46:43Z
FromStats_BitRate : 448000
FromStats_Duration : 01:32:30.816000000
FromStats_FrameCount : 173463
FromStats_StreamSize : 310845696

Text #1
ID : 9
Format : ASS
Codec ID : S_TEXT/ASS
Codec ID/Info : Advanced Sub Station Alpha
Compression mode : Lossless
Language : Russian
Default : No
Forced : No
Statistics Tags Issue : mkvmerge v17.0.0 ('Be Ur Friend') 64-bit 2017-10-27 14:01:28 / mkvmerge v17.0.0 ('Be Ur Friend') 64-bit 2017-10-27 14:01:28 / UTC 2017-10-17T23:46:43Z
FromStats_BitRate : 185
FromStats_Duration : 01:28:02.870000000
FromStats_FrameCount : 1353
FromStats_StreamSize : 122200

Text #2
ID : 10
Format : ASS
Codec ID : S_TEXT/ASS
Codec ID/Info : Advanced Sub Station Alpha
Compression mode : Lossless
Language : English
Default : No
Forced : No
Statistics Tags Issue : mkvmerge v17.0.0 ('Be Ur Friend') 64-bit 2017-10-27 14:01:28 / mkvmerge v17.0.0 ('Be Ur Friend') 64-bit 2017-10-27 14:01:28 / UTC 2017-10-17T23:46:43Z
FromStats_BitRate : 180
FromStats_Duration : 01:29:51.316000000
FromStats_FrameCount : 2163
FromStats_StreamSize : 121368

Menu
00:00:00.000 : :Start
00:02:46.083 : :Charlie Hinton
00:05:07.057 : :Veggie-O's
00:06:25.010 : :The Chapman Academy
00:10:38.012 : :Health Division shutdown
00:12:37.006 : :Value alternatives
00:20:49.123 : :Taking a flier on Daddy Day Care
00:22:25.094 : :Open enrollment
00:25:43.000 : :The Mission Statement
00:28:08.020 : :Big Phil with the guitar
00:29:35.065 : :Sugar time!
00:36:45.078 : :IT is happening
00:39:53.016 : :"Let's get ready to RUMBLE!"
00:41:26.109 : :Dan Kubitz, Child Services
00:46:11.018 : :The third care provider
00:51:56.113 : :The focus group
00:53:41.051 : :"Ballroom Blitz"
00:56:15.122 : :Pet Day
01:03:03.029 : :The man of the house
01:05:34.055 : :"Flash is gone!"
01:07:13.071 : :Mr. Kubitz' puppet show
01:10:09.080 : :ROCK FOR DADDY DAY CARE
01:14:27.088 : :Proposals & propositions
01:16:39.095 : :The dream is over
01:19:24.009 : :Cotton Candy Puffs
01:21:57.037 : :Back in business
01:25:09.062 : :Six months later
01:28:00.066 : :End credits & outtakes


Релиз от: | Silverok


_________________
Проголосуй за трекер Открытый торрент трекер - RUS-MEDIA.ORG

Проголосуй Открытый торрент трекер - RUS-MEDIA.ORG


Вернуться к началу
 Профиль Отправить личное сообщение  
 
   Похожие торренты   Автор   Торрент   Размер 
В этой теме нет новых непрочитанных сообщений. Здравствуй, папа, Новый год! 2 / Daddy's Home 2 [Комедия, 2017] BDRip 720p, Dub [Лицензия]

salma3

0 | 0

5.42 ГБ

В этой теме нет новых непрочитанных сообщений. Здравствуй, папа, Новый год! 2 / Daddy's Home 2 [Комедия, 2017] BDRip 720p, Dub [Лицензия]

salma3

0 | 0

4.37 ГБ

В этой теме нет новых непрочитанных сообщений. Здравствуй, папа, Новый год! 2 / Daddy's Home 2 [Комедия, 2017] BDRip-AVC, Dub [Лицензия]

salma3

0 | 0

2.44 ГБ

В этой теме нет новых непрочитанных сообщений. Здравствуй, папа, Новый год! 2 / Daddy's Home 2 [Комедия, 2017] BDRip-AVC, Dub [Лицензия]

salma3

0 | 0

746.53 МБ

В этой теме нет новых непрочитанных сообщений. Здравствуй, папа, Новый год! 2 / Daddy's Home 2 [Комедия, 2017] BDRip-AVC, Dub [Лицензия]

salma3

0 | 0

1.46 ГБ

В этой теме нет новых непрочитанных сообщений. Здравствуй, папа, Новый год! 2 / Daddy's Home 2 [Комедия, 2017] BDRip, Dub [Лицензия]

salma3

0 | 0

746.86 МБ

В этой теме нет новых непрочитанных сообщений. Здравствуй, папа, Новый год! / Daddy's Home [Комедия, 2015] BDRip-AVC, Dub [Лицензия]

salma3

0 | 0

746.52 МБ


Начать новую тему Ответить на тему  [ 1 сообщение ] 




Для Мосгорсуда, Роскомнадзора и рекламодателей:: mosgorsud-torrent[собачка]yandex.ru
cron