Торрент файл
скачать торрент магнет ссылка Добавлен: 26 окт 2017, 11:51
Размер: 21.94 ГБ
Сидеров: 16
Личеров: 7
Статус: (salma3)
Автор

СообщениеДобавлено: 26 окт 2017, 11:51 

Не в сети
Супермодератор
Аватара пользователя
Дата регистрации:
15 фев 2012, 16:44
Возраст: 28
Спасибо: 7205 / 2147
Сообщения: 65364
Год выхода: 2017
Жанр: Фантастика, боевик, приключения
Режиссер: Дин Израэлайт

В ролях: Дакре Монтгомери, Наоми Скотт, АрДжей Сайлер, Луди Линь, Бекки Джи, Элизабет Бэнкс, Брайан Крэнстон, Билл Хэйдер, Мэтт Шайвли, Коуди Кирсли

О фильме:
Пять обычных старшеклассников узнают, что их маленький город Энджел Гроув и весь мир находятся на грани уничтожения инопланетной угрозой. Избранные судьбой наши герои быстро понимают, что они единственные, кто может спасти планету.



Страна: Канада, США
Продолжительность: 02:03:59
Перевод: Дублированный [Лицензия]

Файл
Качество: BDRemux 1080p
Видео: MPEG-4 AVC, 1920x1080, 19.0 Mbit/s, 23.976 fps
Аудио01: 48 kHz, DTS, 5.1, 768 Kbps | Дублированный | RUS
Аудио02: 48 kHz, TrueHD, 7.1, 4882 Kbps | Оригинал | ENG
Аудио03: 48 kHz, AC3, 5.1, 640 Kbps | Оригинал | ENG
Субтитры: Русские (forced, full), английские


General
Unique ID : 196173418460505291383390316257015199470 (0x9395A047790E31B99DF201F6D0EF76EE)
Complete name : G:VideoSSDPower.Rangers.2017.Lic.BDREMUX.1080p.ExKinoRay.mkv
Format : Matroska
Format version : Version 4 / Version 2
File size : 21.9 GiB
Duration : 2 h 3 min
Overall bit rate mode : Variable
Overall bit rate : 25.3 Mb/s
Encoded date : UTC 2017-10-26 07:44:58
Writing application : mkvmerge v17.0.0 ('Be Ur Friend') 64-bit
Writing library : libebml v1.3.5 + libmatroska v1.4.8

Video
ID : 1
Format : AVC
Format/Info : Advanced Video Codec
Format profile : High@L4.1
Format settings : CABAC / 4 Ref Frames
Format settings, CABAC : Yes
Format settings, RefFrames : 4 frames
Codec ID : V_MPEG4/ISO/AVC
Duration : 2 h 3 min
Bit rate mode : Variable
Bit rate : 19.0 Mb/s
Maximum bit rate : 37.0 Mb/s
Width : 1 920 pixels
Height : 1 080 pixels
Display aspect ratio : 16:9
Frame rate mode : Constant
Frame rate : 23.976 (24000/1001) FPS
Color space : YUV
Chroma subsampling : 4:2:0
Bit depth : 8 bits
Scan type : Progressive
Bits/(Pixel*Frame) : 0.382
Stream size : 16.4 GiB (75%)
Language : English
Default : Yes
Forced : No

Audio #1
ID : 2
Format : DTS
Format/Info : Digital Theater Systems
Mode : 16
Format settings, Endianness : Big
Codec ID : A_DTS
Duration : 2 h 3 min
Bit rate mode : Constant
Bit rate : 768 kb/s
Channel(s) : 6 channels
Channel positions : Front: L C R, Side: L R, LFE
Sampling rate : 48.0 kHz
Frame rate : 93.750 FPS (512 SPF)
Bit depth : 16 bits
Compression mode : Lossy
Stream size : 681 MiB (3%)
Title : Dub [License]
Language : Russian
Default : Yes
Forced : No

Audio #2
ID : 3
Format : TrueHD
Format profile : TrueHD+Atmos / TrueHD
Codec ID : A_TRUEHD
Duration : 2 h 3 min
Bit rate mode : Variable
Bit rate : 4 882 kb/s
Maximum bit rate : 7 578 kb/s
Channel(s) : Object Based / 8 channels
Channel positions : Object Based / Front: L C R, Side: L R, Back: L R, LFE
Sampling rate : / 48.0 kHz
Frame rate : 1 200.000 FPS (40 SPF)
Compression mode : Lossless
Stream size : 4.23 GiB (19%)
Title : Original
Language : English
Default : No
Forced : No

Audio #3
ID : 4
Format : AC-3
Format/Info : Audio Coding 3
Format settings, Endianness : Big
Codec ID : A_AC3
Duration : 2 h 3 min
Bit rate mode : Constant
Bit rate : 640 kb/s
Channel(s) : 6 channels
Channel positions : Front: L C R, Side: L R, LFE
Sampling rate : 48.0 kHz
Frame rate : 31.250 FPS (1536 SPF)
Bit depth : 16 bits
Compression mode : Lossy
Stream size : 568 MiB (3%)
Language : English
Service kind : Complete Main
Default : No
Forced : No

Text #1
ID : 5
Format : UTF-8
Codec ID : S_TEXT/UTF8
Codec ID/Info : UTF-8 Plain Text
Duration : 1 h 51 min
Bit rate : 2 b/s
Count of elements : 42
Stream size : 1.88 KiB (0%)
Title : Forced
Language : Russian
Default : Yes
Forced : No

Text #2
ID : 6
Format : UTF-8
Codec ID : S_TEXT/UTF8
Codec ID/Info : UTF-8 Plain Text
Duration : 1 h 55 min
Bit rate : 99 b/s
Count of elements : 1660
Stream size : 83.8 KiB (0%)
Title : Full
Language : Russian
Default : No
Forced : No

Text #3
ID : 7
Format : UTF-8
Codec ID : S_TEXT/UTF8
Codec ID/Info : UTF-8 Plain Text
Duration : 1 h 52 min
Bit rate : 56 b/s
Count of elements : 1623
Stream size : 46.7 KiB (0%)
Title : Full
Language : English
Default : No
Forced : No

Text #4
ID : 8
Format : UTF-8
Codec ID : S_TEXT/UTF8
Codec ID/Info : UTF-8 Plain Text
Duration : 1 h 55 min
Bit rate : 67 b/s
Count of elements : 1889
Stream size : 56.9 KiB (0%)
Title : SDH
Language : English
Default : No
Forced : No

Text #5
ID : 9
Format : UTF-8
Codec ID : S_TEXT/UTF8
Codec ID/Info : UTF-8 Plain Text
Duration : 1 h 55 min
Bit rate : 91 b/s
Count of elements : 1877
Stream size : 77.8 KiB (0%)
Title : SDH Colored
Language : English
Default : No
Forced : No

Menu
00:00:00.000 : en:00:00:00.000
00:07:00.253 : en:00:07:00.253
00:13:45.241 : en:00:13:45.241
00:18:57.720 : en:00:18:57.720
00:25:49.590 : en:00:25:49.590
00:31:17.125 : en:00:31:17.125
00:38:24.761 : en:00:38:24.761
00:50:49.046 : en:00:50:49.046
01:00:00.221 : en:01:00:00.221
01:08:09.877 : en:01:08:09.877
01:17:06.747 : en:01:17:06.747
01:24:41.743 : en:01:24:41.743
01:30:45.023 : en:01:30:45.023
01:34:18.861 : en:01:34:18.861
01:44:32.933 : en:01:44:32.933
01:51:46.158 : en:01:51:46.158


Релиз от: Автор релиза:


_________________
Проголосуй за трекер Открытый торрент трекер - RUS-MEDIA.ORG

Проголосуй Открытый торрент трекер - RUS-MEDIA.ORG


Вернуться к началу
 Профиль Отправить личное сообщение  
 
   Похожие торренты   Автор   Торрент   Размер 
В этой теме нет новых непрочитанных сообщений. Могучие рейнджеры / Power Rangers [Фантастика, боевик, приключения, 2017] BDRemux 1080p, Dub [Лицензия]

salma3

0 | 0

26.49 ГБ

В этой теме нет новых непрочитанных сообщений. Могучие рейнджеры / Power Rangers [фантастика, боевик, приключения, 2017] UHD BDRemux 2160p, Dub [4K] [iTunes]

salma3

26 | 38

41.38 ГБ

В этой теме нет новых непрочитанных сообщений. Могучие рейнджеры / Power Rangers [фантастика, боевик, приключения, 2017] BDRip, Dub [Лицензия]

salma3

112 | 42

2.18 ГБ

В этой теме нет новых непрочитанных сообщений. Могучие рейнджеры / Power Rangers [Фантастика, боевик, приключения, 2017] BDRip 720p, Dub [Лицензия]

salma3

24 | 3

5.54 ГБ

В этой теме нет новых непрочитанных сообщений. Могучие рейнджеры / Power Rangers [фантастика, боевик, приключения, 2017] WEB-DLRip, Mvo

salma3

2889 | 1148

2.05 ГБ

В этой теме нет новых непрочитанных сообщений. Могучие рейнджеры / Power Rangers [Фантастика, боевик, приключения, 2017] DVD5, Dub

salma3

11 | 3

4.38 ГБ

В этой теме нет новых непрочитанных сообщений. Могучие рейнджеры / Power Rangers [фантастика, боевик, приключения, 2017] BDRip-AVC, Dub [iTunes]

salma3

1417 | 167

2.89 ГБ


Начать новую тему Ответить на тему  [ 1 сообщение ] 




Для Мосгорсуда, Роскомнадзора и рекламодателей:: mosgorsud-torrent[собачка]yandex.ru
cron