COVID-19 - Последняя информация о коронавирусе на сайте Минздрава | СИДИТЕ ДОМА!




Торрент файл
скачать торрент магнет ссылка Добавлен: 26 окт 2017, 11:39
Размер: 55.11 ГБ
Сидеров: 23
Личеров: 31
Статус: (salma3)
Автор

СообщениеДобавлено: 26 окт 2017, 11:39 

Не в сети
Супермодератор
Аватара пользователя
Дата регистрации:
15 фев 2012, 16:44
Возраст: 30
Спасибо: 8214 / 2148
Сообщения: 95872
Год выхода: 2015
Жанр: Фантастика, боевик, триллер
Режиссер: Алан Тейлор

В ролях: Арнольд Шварценеггер, Джейсон Кларк, Эмилия Кларк, Джай Кортни, Дж.К. Симмонс, Дайо Окенийи, Мэтт Смит, Кортни Б. Вэнс, Бён Хон Ли, Майкл Глэдис, Сандрин Холт, Уэйн Баструп, Грегори Алан Уильямс, Отто Санчес, Мэтти Ферраро, Грифф Ферст, Йен Этеридж, Нолан Гросс, Сет Меривезер, Афемо Омилами

О фильме:
Когда Джон Коннор, лидер сопротивления, посылает сержанта Кайла Риза назад в 1984 год, чтобы защитить Сару Коннор и спасти будущее, неожиданный поворот событий создает разлом во времени. Сержант Риз оказывается в новой, незнакомой версии прошлого, где он встречает неожиданных союзников, в том числе Терминатора, новых опасных врагов, и новую миссию: изменить будущее…



Страна: США
Продолжительность: 02:05:43
Перевод(ы): Дублированный | Лицензия
#2: Авторский | Дмитрий Есарев

Файл
Качество: BDRemux 2160p
Видео: MPEG-H HEVC HDR Video, 3840x2160, 52.0 Mbit/s, 23.976 fps
Звук:
Аудио #01: 48 kHz, AC3, 5.1, 640 Kbps | Дублированный | RUS |
Аудио #02: 48 kHz, DTS-HD MA, 7.1, 5002 Kbps | Авторский | RUS |
Аудио #03: 48 kHz, TrueHD, 7.1, 4443 Kbps | Оригинал | ENG |
Аудио #04: 48 kHz, AC3, 5.1, 640 Kbps | Оригинал | ENG |
Субтитры: Русские, английские

General
Unique ID : 209181067112335367335286842692606163680 (0x9D5ECEDF513D8FA28A0D09B6E170FAE0)
Complete name : G:VideoSSDTerminator.Genisys.2015.BDREMUX.2160p.4K.UltraHD.HEVC.HDR.ExKinoRay.mkv
Format : Matroska
Format version : Version 4 / Version 2
File size : 55.1 GiB
Duration : 2 h 5 min
Overall bit rate mode : Variable
Overall bit rate : 62.8 Mb/s
Encoded date : UTC 2017-10-26 01:03:08
Writing application : mkvmerge v17.0.0 ('Be Ur Friend') 64-bit
Writing library : libebml v1.3.5 + libmatroska v1.4.8

Video
ID : 1
Format : HEVC
Format/Info : High Efficiency Video Coding
Format profile : Main 10@L5.1@High
Codec ID : V_MPEGH/ISO/HEVC
Duration : 2 h 5 min
Bit rate : 52.0 Mb/s
Width : 3 840 pixels
Height : 2 160 pixels
Display aspect ratio : 16:9
Frame rate mode : Constant
Frame rate : 23.976 (24000/1001) FPS
Color space : YUV
Chroma subsampling : 4:2:0 (Type 2)
Bit depth : 10 bits
Bits/(Pixel*Frame) : 0.261
Stream size : 45.6 GiB (83%)
Writing library : ATEME Titan File 3.7.8 (4.7.8.0)
Language : English
Default : Yes
Forced : No
Color range : Limited
Color primaries : BT.2020
Transfer characteristics : PQ
Matrix coefficients : BT.2020 non-constant
Mastering display color pri : R: x=0.680000 y=0.320000, G: x=0.265000 y=0.690000, B: x=0.150000 y=0.060000, White point: x=0.312700 y=0.329000
Mastering display luminance : min: 0.0050 cd/m2, max: 1000.0000 cd/m2

Audio #1
ID : 2
Format : AC-3
Format/Info : Audio Coding 3
Format settings, Endianness : Big
Codec ID : A_AC3
Duration : 2 h 5 min
Bit rate mode : Constant
Bit rate : 640 kb/s
Channel(s) : 6 channels
Channel positions : Front: L C R, Side: L R, LFE
Sampling rate : 48.0 kHz
Frame rate : 31.250 FPS (1536 SPF)
Bit depth : 16 bits
Compression mode : Lossy
Stream size : 575 MiB (1%)
Title : Dub [License]
Language : Russian
Service kind : Complete Main
Default : Yes
Forced : No

Audio #2
ID : 3
Format : DTS
Format/Info : Digital Theater Systems
Format profile : MA / Core
Mode : 16
Format settings, Endianness : Big
Codec ID : A_DTS
Duration : 2 h 5 min
Bit rate mode : Variable / Constant
Bit rate : 5 002 kb/s / 1 509 kb/s
Channel(s) : 8 channels / 6 channels
Channel positions : Front: L C R, Side: L R, Back: L R, LFE / Front: L C R, Side: L R, LFE
Sampling rate : 48.0 kHz
Frame rate : 93.750 FPS (512 SPF)
Bit depth : 24 bits
Compression mode : Lossless / Lossy
Stream size : 4.39 GiB (8%)
Title : AVO [Yesarev]
Language : Russian
Default : No
Forced : No

Audio #3
ID : 4
Format : TrueHD
Format profile : TrueHD+Atmos / TrueHD
Codec ID : A_TRUEHD
Duration : 2 h 5 min
Bit rate mode : Variable
Bit rate : 4 443 kb/s
Maximum bit rate : 7 878 kb/s
Channel(s) : Object Based / 8 channels
Channel positions : Object Based / Front: L C R, Side: L R, Back: L R, LFE
Sampling rate : / 48.0 kHz
Frame rate : 1 200.000 FPS (40 SPF)
Compression mode : Lossless
Stream size : 3.90 GiB (7%)
Title : Original
Language : English
Default : No
Forced : No

Audio #4
ID : 5
Format : AC-3
Format/Info : Audio Coding 3
Format settings, Endianness : Big
Codec ID : A_AC3
Duration : 2 h 5 min
Bit rate mode : Constant
Bit rate : 640 kb/s
Channel(s) : 6 channels
Channel positions : Front: L C R, Side: L R, LFE
Sampling rate : 48.0 kHz
Frame rate : 31.250 FPS (1536 SPF)
Bit depth : 16 bits
Compression mode : Lossy
Stream size : 575 MiB (1%)
Language : English
Service kind : Complete Main
Default : No
Forced : No

Text #1
ID : 6
Format : UTF-8
Codec ID : S_TEXT/UTF8
Codec ID/Info : UTF-8 Plain Text
Duration : 1 h 40 min
Bit rate : 0 b/s
Count of elements : 16
Stream size : 601 Bytes (0%)
Title : Forced
Language : Russian
Default : Yes
Forced : No

Text #2
ID : 7
Format : UTF-8
Codec ID : S_TEXT/UTF8
Codec ID/Info : UTF-8 Plain Text
Duration : 1 h 56 min
Bit rate : 79 b/s
Count of elements : 1289
Stream size : 67.8 KiB (0%)
Title : Full
Language : Russian
Default : No
Forced : No

Text #3
ID : 8
Format : UTF-8
Codec ID : S_TEXT/UTF8
Codec ID/Info : UTF-8 Plain Text
Duration : 1 h 57 min
Bit rate : 77 b/s
Count of elements : 1502
Stream size : 66.5 KiB (0%)
Title : Full
Language : Russian
Default : No
Forced : No

Text #4
ID : 9
Format : UTF-8
Codec ID : S_TEXT/UTF8
Codec ID/Info : UTF-8 Plain Text
Duration : 1 h 56 min
Bit rate : 47 b/s
Count of elements : 1340
Stream size : 40.4 KiB (0%)
Title : Full
Language : English
Default : No
Forced : No

Text #5
ID : 10
Format : UTF-8
Codec ID : S_TEXT/UTF8
Codec ID/Info : UTF-8 Plain Text
Duration : 1 h 58 min
Bit rate : 51 b/s
Count of elements : 1606
Stream size : 44.6 KiB (0%)
Title : SDH
Language : English
Default : No
Forced : No

Menu
00:00:00.000 : en:00:00:00.000
00:07:40.335 : en:00:07:40.335
00:14:20.735 : en:00:14:20.735
00:20:31.564 : en:00:20:31.564
00:27:48.417 : en:00:27:48.417
00:34:54.801 : en:00:34:54.801
00:41:02.627 : en:00:41:02.627
00:46:28.786 : en:00:46:28.786
00:53:05.516 : en:00:53:05.516
01:01:00.240 : en:01:01:00.240
01:08:22.557 : en:01:08:22.557
01:14:43.813 : en:01:14:43.813
01:21:31.261 : en:01:21:31.261
01:31:01.706 : en:01:31:01.706
01:38:42.750 : en:01:38:42.750
01:45:41.085 : en:01:45:41.085
01:52:48.971 : en:01:52:48.971
01:58:00.115 : en:01:58:00.115


Релиз от: Автор релиза:


_________________
Проголосуй за трекер Открытый торрент трекер - RUS-MEDIA.ORG

Проголосуй Открытый торрент трекер - RUS-MEDIA.ORG


Скачать книги и аудио книги через торрент


Вернуться к началу
 Профиль Отправить личное сообщение  
 
   Похожие торренты   Автор   Торрент   Размер 
В этой теме нет новых непрочитанных сообщений. Терминатор: Генезис / Terminator Genisys [фантастика, боевик, триллер, 2015] DVD9, Dub

salma3

0 | 0

6.71 ГБ

В этой теме нет новых непрочитанных сообщений. Терминатор 2: Судный день / Terminator 2: Judgment Day [Фантастика, боевик, триллер, 1991] BDRemux 2160p, Dub [4K] [Театральная версия]

salma3

29 | 20

53.24 ГБ

В этой теме нет новых непрочитанных сообщений. Робот по имени Чаппи / Chappie [Фантастика, боевик, триллер, 2015] UHD BDRemux 2160p, Dub [4K] [Лицензия]

salma3

14 | 2

54.83 ГБ

В этой теме нет новых непрочитанных сообщений. Бегущий в лабиринте: Испытание огнём / Maze Runner: The Scorch Trials [Фантастика, боевик, триллер, 2015] UHD BDRemux 2160p, Dub [4K] [Лицензия]

salma3

14 | 11

46.97 ГБ

В этой теме нет новых непрочитанных сообщений. Хитмэн: Агент 47 / Hitman: Agent 47 [Боевик, триллер, криминал, 2015] UHD BDRemux 2160p, Dub [4K] [Лицензия]

salma3

21 | 9

34.65 ГБ

В этой теме нет новых непрочитанных сообщений. 5-я волна / The 5th Wave [Фантастика, боевик, триллер, 2016] UHD BDRemux 2160p, Dub [4K] [Лицензия]

salma3

30 | 10

49.67 ГБ

В этой теме нет новых непрочитанных сообщений. Логан / Logan [Фантастика, боевик, триллер, драма, 2017] UHD BDRemux 2160p, Dub [4K] [Лицензия]

salma3

38 | 15

49.21 ГБ


Начать новую тему Ответить на тему  [ 1 сообщение ] 




Для Мосгорсуда, Роскомнадзора и рекламодателей:: rstracker[собака]yandex.ru
cron