Торрент файл
скачать торрент магнет ссылка Добавлен: 24 окт 2017, 21:13
Размер: 14.06 ГБ
Сидеров: 6
Личеров: 1
Статус: (salma3)
Автор

СообщениеДобавлено: 24 окт 2017, 21:13 

Не в сети
Супермодератор
Аватара пользователя
Дата регистрации:
15 фев 2012, 16:44
Возраст: 28
Спасибо: 7205 / 2147
Сообщения: 65324
Год выхода: 1985
Жанр: ужасы, боевик, триллер
Режиссер: Роберта Файндлей

В ролях: Джо Линн, Мина Берн, Уолтер Брайант, Корина Шато, Энджел Дэвид, Марта Де Ла Круз, Ларри Лара

Описание: Обыкновенный жилой дом в Южном Бронксе. В его подвал часто захаживает банда подростков-подонков, одетых под «металл», торгующих наркотиками, имеющих при себе оружие и плюющих на общественное мнение. То, что они устраивают там свои сходки, не нравится некоторым жильцам, которые однажды вызывают полицию. Молодых ублюдков забирают в участок, но так как при них ничего запрещённого обнаружено не было, их отпускают. А они, обозлившись, возвращаются обратно, и их главарь решает устроить месть, кровавую месть. Сначала под их горячую руку попадает ни в чём неповинный Комиссар Рекс, а уж после — вроде бы случайно человек. Почувствовав вкус крови, юнцы решили истребить проживающих в доме людей всех до одного. Убить не просто сразу, а затеяв своего рода игру, преодолевая по этажу дома и постепенно подтесняя народ к чердаку, где его всего и собираются замочить. Телефоны не работают, выход отрезан. Что делать несчастным, когда их жизни угрожают такие отморозки?



Страна: США
Продолжительность: 01:34:13
Перевод: Любительский (одноголосый закадровый) Юрий Медведев
Субтитры: английские

Файл
Качество: BDRemux 1080р
Видео: 1920x1080 / MPEG-4 AVC Video / 20491 kbps / 1080p / 23,976 fps / 16:9 / High Profile 4.1
Аудио 1: Русский, AC3 2.0 192 Kbps 48,0 КГц (Medvedev)
Аудио 2: English, FLAC 2.0 ~387 Kbps (Original)
Аудио 3: English, FLAC 2.0 ~295 Kbps (Commentary)

Общее
Уникальный идентификатор : 196951470036757346179510169145667084300 (0x942B792F014037B7987AE2E4B305E00C)
Полное имя : Tenement.1985.BDRemux.1080p.Rus.Eng.mkv
Формат : Matroska
Версия формата : Version 4 / Version 2
Размер файла : 14,1 Гбайт
Продолжительность : 1 ч. 34 м.
Режим общего битрейта : Переменный
Общий поток : 21,4 Мбит/сек
Название фильма : Tenement
Дата кодирования : UTC 2017-08-29 06:03:44
Программа кодирования : mkvmerge v9.8.0 ('Kuglblids') 32bit
Библиотека кодирования : libebml v1.3.4 + libmatroska v1.4.5

Видео
Идентификатор : 1
Формат : AVC
Формат/Информация : Advanced Video Codec
Профиль формата : High@L4.1
Параметр CABAC формата : Да
Параметр ReFrames формата : 4 кадра
Идентификатор кодека : V_MPEG4/ISO/AVC
Продолжительность : 1 ч. 34 м.
Вид битрейта : Переменный
Битрейт : 20,5 Мбит/сек
Максимальный битрейт : 27,0 Мбит/сек
Ширина : 1920 пикселей
Высота : 1080 пикселей
Соотношение сторон : 16:9
Режим частоты кадров : Постоянный
Частота кадров : 23,976 (24000/1001) кадра/сек
Стандарт вещания : NTSC
Цветовое пространство : YUV
Субдискретизация насыщенности : 4:2:0
Битовая глубина : 8 бит
Тип развёртки : Прогрессивная
Бит/(Пиксели*Кадры) : 0.412
Размер потока : 13,5 Гбайт (96%)
Заголовок : Tenement 1985 1080p Blu-ray AVC LPCM 2.0-BaggerInc
Default : Нет
Forced : Нет
Цветовой диапазон : Limited
Основные цвета : BT.709
Характеристики трансфера : BT.709
Коэффициенты матрицы : BT.709

Аудио #1
Идентификатор : 2
Формат : AC-3
Формат/Информация : Audio Coding 3
Расширение режима : CM (complete main)
Параметр Endianness формата : Big
Идентификатор кодека : A_AC3
Продолжительность : 1 ч. 34 м.
Вид битрейта : Постоянный
Битрейт : 192 Кбит/сек
Каналы : 2 канала
Расположение каналов : Front: L R
Частота : 48,0 КГц
Частота кадров : 31,250 кадров/сек (1536 spf)
Битовая глубина : 16 бит
Метод сжатия : С потерями
Размер потока : 129 Мбайт (1%)
Заголовок : Medvedev AC3 2.0 192 kbps
Язык : Russian
Default : Нет
Forced : Нет

Аудио #2
Идентификатор : 3
Формат : FLAC
Формат/Информация : Free Lossless Audio Codec
Идентификатор кодека : A_FLAC
Продолжительность : 1 ч. 34 м.
Вид битрейта : Переменный
Битрейт : 387 Кбит/сек
Каналы : 2 канала
Расположение каналов : Front: L R
Частота : 48,0 КГц
Частота кадров : 11,719 кадров/сек (4096 spf)
Битовая глубина : 16 бит
Размер потока : 261 Мбайт (2%)
Заголовок : Original FLAC 2.0 ~387kbps
Библиотека кодирования : libFLAC 1.2.1 (UTC 2007-09-17)
Язык : English
Default : Нет
Forced : Нет

Аудио #3
Идентификатор : 4
Формат : FLAC
Формат/Информация : Free Lossless Audio Codec
Идентификатор кодека : A_FLAC
Продолжительность : 1 ч. 34 м.
Вид битрейта : Переменный
Битрейт : 295 Кбит/сек
Каналы : 2 канала
Расположение каналов : Front: L R
Частота : 48,0 КГц
Частота кадров : 11,719 кадров/сек (4096 spf)
Битовая глубина : 16 бит
Размер потока : 199 Мбайт (1%)
Заголовок : Commentary FLAC 2.0 ~295kbps
Библиотека кодирования : libFLAC 1.2.1 (UTC 2007-09-17)
Язык : English
Default : Нет
Forced : Нет

Текст
Идентификатор : 5
Формат : UTF-8
Идентификатор кодека : S_TEXT/UTF8
Идентификатор кодека/Информация : UTF-8 Plain Text
Продолжительность : 1 ч. 30 м.
Битрейт : 36 бит/сек
Count of elements : 966
Размер потока : 24,2 Кбайт (0%)
Язык : English
Default : Нет
Forced : Нет

Меню
00:00:00.000 : en:00:00:00.000
00:08:09.447 : en:00:08:09.447
00:18:50.755 : en:00:18:50.755
00:27:39.825 : en:00:27:39.825
00:40:27.842 : en:00:40:27.842
00:52:35.569 : en:00:52:35.569
01:03:19.713 : en:01:03:19.713
01:16:06.187 : en:01:16:06.187
01:27:03.844 : en:01:27:03.844


_________________
Проголосуй за трекер Открытый торрент трекер - RUS-MEDIA.ORG

Проголосуй Открытый торрент трекер - RUS-MEDIA.ORG


Вернуться к началу
 Профиль Отправить личное сообщение  
 
   Похожие торренты   Автор   Торрент   Размер 
В этой теме нет новых непрочитанных сообщений. Поезд-беглец / Runaway Train [боевик, триллер, драма, 1985] BDRemux 1080р, Dub

salma3

15 | 4

29.17 ГБ

В этой теме нет новых непрочитанных сообщений. Доктор и дьяволы / The Doctor and the Devils [ужасы, драма, 1985] BDRemux 1080р, Avo

salma3

0 | 0

23.51 ГБ

В этой теме нет новых непрочитанных сообщений. В ночи / Into the Night [драма, комедия, триллер, 1985] BDRemux 1080р, Mvo

salma3

27 | 15

27.16 ГБ

В этой теме нет новых непрочитанных сообщений. Обитель зла: Последняя глава / Resident Evil: The Final Chapter [Ужасы, фантастика, боевик, триллер, 2016] BDRemux 1080p, Dub+Sub [3D Video] [iTunes]

salma3

102 | 60

26.83 ГБ

В этой теме нет новых непрочитанных сообщений. Ловушка для ведьм / Witchtrap [ужасы, боевик, триллер, 1989] BDRemux 1080р, Avo

salma3

11 | 10

23.51 ГБ

В этой теме нет новых непрочитанных сообщений. Обитель зла: Последняя глава / Resident Evil: The Final Chapter [Ужасы, фантастика, боевик, 2016] BDRemux 1080p, Dub

salma3

0 | 0

28.06 ГБ

В этой теме нет новых непрочитанных сообщений. Обитель зла: Последняя глава / Resident Evil: The Final Chapter [Ужасы, фантастика, боевик, 2016] BDRemux 1080p, Dub+Sub [Лицензия]

salma3

224 | 128

17.53 ГБ


Начать новую тему Ответить на тему  [ 1 сообщение ] 




Для Мосгорсуда, Роскомнадзора и рекламодателей:: mosgorsud-torrent[собачка]yandex.ru
cron