Торрент файл
скачать торрент магнет ссылка Добавлен: 24 окт 2017, 21:10
Размер: 3.76 ГБ
Сидеров: 22
Личеров: 2
Статус: (salma3)
Автор

СообщениеДобавлено: 24 окт 2017, 21:10 

Не в сети
Супермодератор
Аватара пользователя
Дата регистрации:
15 фев 2012, 16:44
Возраст: 28
Спасибо: 6656 / 2146
Сообщения: 46014
Год выпуска: 1978
Жанр: детектив, криминал
Выпущено: США, Columbia Pictures Corporation, EMI Films Ltd, Rastar Pictures
Продолжительность: 01:32:13
Перевод: Профессиональный многоголосый
Режиссер: Роберт Мур

В ролях: Питер Фальк, Энн-Маргрет, Айлин Бреннан, Сид Сизар, Стокард Ченнинг, Джеймс Коко, Дом Делуиз, Луиза Флетчер, Джон Хаузмэн, Мэдлин Кан, Фернандо Ламас, Марша Мэйсон, Фил Силверс и др.


О фильме:
Действие происходит в 1940 году в Сан-Франциско. Частный детектив Лу Пекинпа обвиняется в убийстве своего партнера, чья жена была его любовницей. Лейтенант ДиМаджио и его помощники ведут смехотворное расследование, а тут в кабинете Лу объявляется некая миссис Монтенегро. Вместе с тремя своими спутниками она ищет древние сокровища — дюжину бриллиантовых яиц.




Файл
Качество: WEB-DLRip 720p
Видео: MPEG-4 AVC, 5423 Кбит/сек, 1280x544, 23,976 кадра/сек
Аудио 1: Русский: AC3, 2 ch, 192 Кбит/сек |Профессиональный многоголосый|
Аудио 2: Английский: EAC3, 2 ch, 224 Кбит/сек |Оригинал|
Субтитры: Английские
Навигация по главам: есть

Релиз от:

x264 [info]: frame I:822 Avg QP:14.65 size: 169320
x264 [info]: frame P:31751 Avg QP:17.28 size: 65038
x264 [info]: frame B:100091 Avg QP:19.61 size: 15620
-----------------------------------------------------------------------
Общее
Уникальный идентификатор : 199109514260871947731594679843591976941 (0x95CB18FA86F3DB6A8F37D3812BCE77ED)
Полное имя : Дешевый.детектив.1978.WEB-DLRip.720p.KORSAR.mkv
Формат : Matroska
Версия формата : Version 2
Размер файла : 3,76 Гбайт
Продолжительность : 1 ч. 32 м.
Общий поток : 5841 Кбит/сек
Название фильма : The Cheap Detective
Дата кодирования : UTC 2017-08-28 10:15:22
Программа кодирования : mkvmerge v5.8.0 ('No Sleep / Pillow') built on Sep 2 2012 15:37:04
Библиотека кодирования : libebml v1.2.3 + libmatroska v1.3.0

Видео
Идентификатор : 1
Формат : AVC
Формат/Информация : Advanced Video Codec
Профиль формата : High@L4.1
Параметр CABAC формата : Да
Параметр ReFrames формата : 12 кадров
Идентификатор кодека : V_MPEG4/ISO/AVC
Продолжительность : 1 ч. 32 м.
Битрейт : 5423 Кбит/сек
Ширина : 1280 пикселей
Высота : 544 пикселя
Соотношение сторон : 2,35:1
Режим частоты кадров : Постоянный
Частота кадров : 23,976 (24000/1001) кадра/сек
Цветовое пространство : YUV
Субдискретизация насыщенности : 4:2:0
Битовая глубина : 8 бит
Тип развёртки : Прогрессивная
Бит/(Пиксели*Кадры) : 0.325
Размер потока : 3,42 Гбайт (91%)
Заголовок : RIP | MZMA
Библиотека кодирования : x264 core 148 r2638 7599210
Настройки программы : cabac=1 / ref=12 / deblock=1:-1:-1 / analyse=0x3:0x113 / me=umh / subme=11 / psy=1 / psy_rd=1.00:0.00 / mixed_ref=1 / me_range=48 / chroma_me=1 / trellis=2 / 8x8dct=1 / cqm=0 / deadzone=21,11 / fast_pskip=0 / chroma_qp_offset=-2 / threads=6 / lookahead_threads=1 / sliced_threads=0 / nr=0 / decimate=0 / interlaced=0 / bluray_compat=0 / constrained_intra=0 / bframes=16 / b_pyramid=2 / b_adapt=2 / b_bias=0 / direct=3 / weightb=1 / open_gop=0 / weightp=2 / keyint=250 / keyint_min=23 / scenecut=40 / intra_refresh=0 / rc_lookahead=60 / rc=2pass / mbtree=1 / bitrate=5423 / ratetol=1.0 / qcomp=0.60 / qpmin=0 / qpmax=69 / qpstep=4 / cplxblur=20.0 / qblur=0.5 / vbv_maxrate=50000 / vbv_bufsize=62500 / nal_hrd=none / filler=0 / ip_ratio=1.40 / aq=1:1.00
Язык : English
Default : Да
Forced : Нет
Цветовой диапазон : Limited
Основные цвета : BT.709
Характеристики трансфера : BT.709
Коэффициенты матрицы : BT.709

Аудио #1
Идентификатор : 2
Формат : AC-3
Формат/Информация : Audio Coding 3
Режим : Dolby Digital
Параметр Endianness формата : Big
Идентификатор кодека : A_AC3
Продолжительность : 1 ч. 32 м.
Вид битрейта : Постоянный
Битрейт : 192 Кбит/сек
Каналы : 2 канала
Расположение каналов : Front: L R
Частота : 48,0 КГц
Частота кадров : 31,250 кадров/сек (1536 spf)
Битовая глубина : 16 бит
Метод сжатия : С потерями
Размер потока : 127 Мбайт (3%)
Заголовок : MVO
Язык : Russian
Default : Да
Forced : Нет

Аудио #2
Идентификатор : 3
Формат : E-AC-3
Формат/Информация : Enhanced Audio Coding 3
Параметр Endianness формата : Big
Идентификатор кодека : A_EAC3
Продолжительность : 1 ч. 32 м.
Вид битрейта : Постоянный
Битрейт : 224 Кбит/сек
Каналы : 2 канала
Расположение каналов : Front: L R
Частота : 48,0 КГц
Частота кадров : 187,500 кадров/сек (256 spf)
Метод сжатия : С потерями
Размер потока : 148 Мбайт (4%)
Заголовок : Original
Язык : English
Default : Нет
Forced : Нет

Текст
Идентификатор : 4
Формат : UTF-8
Идентификатор кодека : S_TEXT/UTF8
Идентификатор кодека/Информация : UTF-8 Plain Text
Язык : English
Default : Нет
Forced : Нет

Меню
00:00:00.000 : en:Chapter 01
00:03:26.739 : en:Chapter 02
00:06:00.827 : en:Chapter 03
00:07:52.839 : en:Chapter 04
00:13:03.783 : en:Chapter 05
00:18:56.268 : en:Chapter 06
00:21:42.167 : en:Chapter 07
00:23:02.848 : en:Chapter 08
00:25:50.415 : en:Chapter 09
00:27:46.197 : en:Chapter 10
00:29:35.440 : en:Chapter 11
00:31:29.988 : en:Chapter 12
00:33:17.428 : en:Chapter 13
00:36:18.442 : en:Chapter 14
00:40:20.384 : en:Chapter 15
00:44:24.261 : en:Chapter 16
00:46:48.472 : en:Chapter 17
00:57:43.927 : en:Chapter 18
01:04:30.733 : en:Chapter 19
01:09:29.765 : en:Chapter 20
01:12:34.683 : en:Chapter 21
01:16:09.398 : en:Chapter 22
01:19:22.791 : en:Chapter 23
01:22:39.087 : en:Chapter 24
01:24:05.407 : en:Chapter 25
01:26:49.304 : en:Chapter 26
01:27:40.688 : en:Chapter 27
01:29:42.143 : en:Chapter 28


_________________
Проголосуй за трекер Открытый торрент трекер - RUS-MEDIA.ORG

Проголосуй Открытый торрент трекер - RUS-MEDIA.ORG



реклама партнёра


Вернуться к началу
 Профиль Отправить личное сообщение  
 
   Похожие торренты   Автор   Торрент   Размер 
В этой теме нет новых непрочитанных сообщений. Детектив / The Detective [драма, криминал, 1968] DVDRip, Dvo

salma3

18 | 2

1.46 ГБ

В этой теме нет новых непрочитанных сообщений. Детектив / The Detective [драма, криминал, 1968] HDRip, Dvo

salma3

9 | 1

1.45 ГБ

В этой теме нет новых непрочитанных сообщений. Детектив Бёмкеш Бакши! / Detective Byomkesh Bakshy! [Триллер, детектив, 2015] HDRip, Dvo

salma3

173 | 13

1.46 ГБ

В этой теме нет новых непрочитанных сообщений. Детективное агентство Дирка Джентли / Dirk Gently's Holistic Detective Agency [S01] (фантастика, комедия, детектив, 2016) WEB-DLRip 1080p | ViruseProject | Sub

marya111

19 | 10

13.39 ГБ

В этой теме нет новых непрочитанных сообщений. Детектив / La détective (2017) WEBRip

salma3

203 | 13

1.36 ГБ

В этой теме нет новых непрочитанных сообщений. Возвращение / The Comeback [ужасы, детектив, триллер, 1978] BDRip 720p, Avo

salma3

17 | 8

6.88 ГБ

В этой теме нет новых непрочитанных сообщений. Смерть на Ниле / Death on the Nile [драма, криминал, детектив, 1978] BDRip-AVC, Dub

salma3

20 | 2

3.55 ГБ


Начать новую тему Ответить на тему  [ 1 сообщение ] 




Для Мосгорсуда, Роскомнадзора и рекламодателей:: mosgorsud-torrent[собачка]yandex.ru