Торрент файл
скачать торрент магнет ссылка Добавлен: 24 окт 2017, 21:09
Размер: 32.45 ГБ
Сидеров: 16
Личеров: 9
Статус: (salma3)
Автор

СообщениеДобавлено: 24 окт 2017, 21:09 

Не в сети
Супермодератор
Аватара пользователя
Дата регистрации:
15 фев 2012, 16:44
Возраст: 28
Спасибо: 6642 / 2146
Сообщения: 45664
Год выхода: 2005
Жанр: Боевик, комедия, мелодрама
Режиссер: Даг Лайман

В ролях: Брэд Питт, Анджелина Джоли, Винс Вон, Адам Броди, Керри Вашингтон, Кейт Дэвид, Крис Вейц, Рэйчел Хантли, Мишель Монахэн, Стефани Марч, Дженнифер Моррисон, Тереза Баррера, Перри Ривз, Мелани Толберт

О фильме:
Джон и Джейн женаты не так долго, но уже утомлены своим браком. Им кажется, что они знают друг о друге все. Но есть кое-что, что каждый предпочитает держать при себе: оба они — наемные убийцы, которые тайно путешествуют по миру, выполняя опасные миссии. Эти отдельные тайные приключения становятся их общей судьбой в тот момент, когда Джейн получает заказ на Джона, а Джон на Джейн



Страна: США
Продолжительность: 02:05:33
Перевод: Профессиональный [многоголосый], авторский

Файл
Кодек: MPEG-4 AVC
Качество: BDRemux 1080p
Видео: 28247 Кбит/с, 1920x1080, 23.976 кадр/с

Аудио 1: Русский DTS-HD Master / 5.1 / 2265 kbps / 48 kHz / 16-bit (DTS Core: 5.1 / 48 kHz / 1509 kbps / 16-bit) - Профессиональный многоголосый (Tycoon)
Аудио 2: Русский Dolby Digital / 5.1 / 448 kbps / 48 kHz - Профессиональный многоголосый (Киномания)
Аудио 3: Русский DTS / 5.1 / 1509 kbps / 48 kHz - Авторский (Гаврилов)
Аудио 4: Русский DTS / 5.1 / 1509 kbps / 48 kHz - Авторский (Есарев)
Аудио 5: Русский DTS / 5.1 / 768 kbps / 48 kHz - Авторский (Королёв)
Аудио 6: Английский DTS-HD Master Audio / 5.1 / 2273 kbps / 48 kHz / 16-bit (DTS Core: 5.1 / 48 kHz / 1509 kbps / 16-bit) - Оригинал
Субтитры: Русские, английские
Главы: есть


Общее
Уникальный идентификатор : 175838863048738027535341531225169420231 (0x8449554AD7B310A5B0B319F7AAC95FC7)
Полное имя : D:\РЕМУКС!!!!!\№1\Мистер и миссис Смит.BDRemux.mkv
Формат : Matroska
Версия формата : Version 4 / Version 2
Размер файла : 32,5 Гбайт
Продолжительность : 2 ч. 5 м.
Режим общего битрейта : Переменный
Общий поток : 37,0 Мбит/сек
Название фильма : Мистер и миссис Смит.BDRemux.thx:SPOMOPS.
Дата кодирования : UTC 2017-10-23 08:05:32
Программа кодирования : mkvmerge v6.1.0 ('Old Devil') built on Mar 4 2013 09:10:42
Библиотека кодирования : libebml v1.3.0 + libmatroska v1.4.0

Видео
Идентификатор : 1
Формат : AVC
Формат/Информация : Advanced Video Codec
Профиль формата : High@L4.1
Параметр CABAC формата : Да
Параметр RefFrames формата : 4 кадра
Режим смешивания : Container profile=@0.0
Идентификатор кодека : V_MPEG4/ISO/AVC
Продолжительность : 2 ч. 5 м.
Вид битрейта : Переменный
Максимальный битрейт : 35,0 Мбит/сек
Ширина : 1920 пикселей
Высота : 1080 пикселей
Соотношение сторон : 16:9
Режим частоты кадров : Постоянный
Частота кадров : 23,976 (24000/1001) кадра/сек
Стандарт вещания : NTSC
Цветовое пространство : YUV
Субдискретизация насыщенности : 4:2:0
Битовая глубина : 8 бит
Тип развёртки : Прогрессивная
Заголовок : Mr.&.Mrs.Smith.2005.Director's.Cut.Blu-ray.1080p.AVC @ 28247 kbps
Язык : English
Default : Нет
Forced : Нет
Цветовой диапазон : Limited
Основные цвета : BT.709
Характеристики трансфера : BT.709
Коэффициенты матрицы : BT.709

Аудио #1
Идентификатор : 2
Формат : DTS
Формат/Информация : Digital Theater Systems
Профиль формата : MA / Core
Режим : 16
Параметр Endianness формата : Big
Идентификатор кодека : A_DTS
Продолжительность : 2 ч. 5 м.
Вид битрейта : Переменный / Постоянный
Битрейт : Неизвестно / 1509 Кбит/сек
Каналы : 6 каналов
Расположение каналов : Front: L C R, Side: L R, LFE
Частота : 48,0 КГц
Частота кадров : 93,750 кадра/сек (512 SPF)
Битовая глубина : 16 бит
Метод сжатия : Без потерь / Lossy
Заголовок : Русский DTS-HD MA 2265 kbps - Tycoon
Язык : Russian
Default : Да
Forced : Нет

Аудио #2
Идентификатор : 3
Формат : AC-3
Формат/Информация : Audio Coding 3
Параметр Endianness формата : Big
Идентификатор кодека : A_AC3
Продолжительность : 2 ч. 5 м.
Вид битрейта : Постоянный
Битрейт : 448 Кбит/сек
Каналы : 6 каналов
Расположение каналов : Front: L C R, Side: L R, LFE
Частота : 48,0 КГц
Частота кадров : 31,250 кадров/сек (1536 SPF)
Битовая глубина : 16 бит
Метод сжатия : С потерями
Размер потока : 402 Мбайт (1%)
Заголовок : Русский АСЗ 448 kbps - Киномания
Язык : Russian
ServiceKind/String : Complete Main
Default : Нет
Forced : Нет

Аудио #3
Идентификатор : 4
Формат : DTS
Формат/Информация : Digital Theater Systems
Режим : 16
Параметр Endianness формата : Big
Идентификатор кодека : A_DTS
Продолжительность : 2 ч. 5 м.
Вид битрейта : Постоянный
Битрейт : 1509 Кбит/сек
Каналы : 6 каналов
Расположение каналов : Front: L C R, Side: L R, LFE
Частота : 48,0 КГц
Частота кадров : 93,750 кадра/сек (512 SPF)
Битовая глубина : 16 бит
Метод сжатия : С потерями
Размер потока : 1,32 Гбайт (4%)
Заголовок : Русский DTS / 1509 kbps - АП (Гаврилов)
Язык : Russian
Default : Нет
Forced : Нет

Аудио #4
Идентификатор : 5
Формат : DTS
Формат/Информация : Digital Theater Systems
Режим : 16
Параметр Endianness формата : Big
Идентификатор кодека : A_DTS
Продолжительность : 2 ч. 5 м.
Вид битрейта : Постоянный
Битрейт : 1509 Кбит/сек
Каналы : 6 каналов
Расположение каналов : Front: L C R, Side: L R, LFE
Частота : 48,0 КГц
Частота кадров : 93,750 кадра/сек (512 SPF)
Битовая глубина : 16 бит
Метод сжатия : С потерями
Размер потока : 1,32 Гбайт (4%)
Заголовок : Русский DTS / 1509 kbps - АП (Есарев)
Язык : Russian
Default : Нет
Forced : Нет

Аудио #5
Идентификатор : 6
Формат : DTS
Формат/Информация : Digital Theater Systems
Режим : 16
Параметр Endianness формата : Big
Идентификатор кодека : A_DTS
Продолжительность : 2 ч. 5 м.
Вид битрейта : Постоянный
Битрейт : 755 Кбит/сек
Каналы : 6 каналов
Расположение каналов : Front: L C R, Side: L R, LFE
Частота : 48,0 КГц
Частота кадров : 93,750 кадра/сек (512 SPF)
Битовая глубина : 24 бит
Метод сжатия : С потерями
Размер потока : 678 Мбайт (2%)
Заголовок : Русский DTS / 768 kbps - АП (Королёв)
Язык : Russian
Default : Нет
Forced : Нет

Аудио #6
Идентификатор : 7
Формат : DTS
Формат/Информация : Digital Theater Systems
Профиль формата : MA / Core
Режим : 16
Параметр Endianness формата : Big
Идентификатор кодека : A_DTS
Продолжительность : 2 ч. 5 м.
Вид битрейта : Переменный / Постоянный
Битрейт : Неизвестно / 1509 Кбит/сек
Каналы : 6 каналов
Расположение каналов : Front: L C R, Side: L R, LFE
Частота : 48,0 КГц
Частота кадров : 93,750 кадра/сек (512 SPF)
Битовая глубина : 16 бит
Метод сжатия : Без потерь / Lossy
Заголовок : Английский DTS-HD MA 2273 - Оригинал
Язык : English
Default : Нет
Forced : Нет

Текст #1
Идентификатор : 8
Формат : UTF-8
Идентификатор кодека : S_TEXT/UTF8
Идентификатор кодека/Информация : UTF-8 Plain Text
Заголовок : Русские
Язык : Russian
Default : Нет
Forced : Нет

Текст #2
Идентификатор : 9
Формат : UTF-8
Идентификатор кодека : S_TEXT/UTF8
Идентификатор кодека/Информация : UTF-8 Plain Text
Заголовок : Английские
Язык : English
Default : Нет
Forced : Нет

Меню
00:00:00.000 : en:00:00:00.000
00:10:07.774 : en:00:10:07.774
00:19:43.182 : en:00:19:43.182
00:28:37.382 : en:00:28:37.382
00:39:39.669 : en:00:39:39.669
00:50:11.133 : en:00:50:11.133
01:01:19.634 : en:01:01:19.634
01:12:23.548 : en:01:12:23.548
01:23:01.059 : en:01:23:01.059
01:34:05.265 : en:01:34:05.265
01:45:33.661 : en:01:45:33.661
01:56:58.053 : en:01:56:58.053



_________________
Проголосуй за трекер Открытый торрент трекер - RUS-MEDIA.ORG

Проголосуй Открытый торрент трекер - RUS-MEDIA.ORG



реклама партнёра


Вернуться к началу
 Профиль Отправить личное сообщение  
 
   Похожие торренты   Автор   Торрент   Размер 
В этой теме нет новых непрочитанных сообщений. Мистер и миссис Смит / Mr. & Mrs. Smith [боевик, триллер, мелодрама, 2005] BDRip 1080p, Mvo

salma3

26 | 1

18.35 ГБ

В этой теме нет новых непрочитанных сообщений. Сицилиец / The Sicilian [боевик, драма, криминал, 1987] BDRip 1080p, Mvo [Режиссерская версия]

salma3

42 | 29

24.27 ГБ

В этой теме нет новых непрочитанных сообщений. Газонокосильщик / The Lawnmower Man [ужасы, фантастика, 1992] BDRemux 1080р, Dvo [Режиссерская версия]

salma3

6 | 11

45.72 ГБ

В этой теме нет новых непрочитанных сообщений. Спасатели Малибу / Baywatch [боевик, драма, комедия, 2017] BDRemux 1080p, Dub+Sub [Лицензия] [Раширенная версия]

salma3

0 | 0

26.44 ГБ

В этой теме нет новых непрочитанных сообщений. Красотка / Pretty Woman [Мелодрама, комедия, 1990] BDRip-AVC, Avo [Режиссёрская версия]

salma3

15 | 1

3.21 ГБ

В этой теме нет новых непрочитанных сообщений. Мой лучший любовник / Prime [драма, мелодрама, комедия, 2005] BDRemux 1080p, Dub

salma3

3 | 3

25.84 ГБ

В этой теме нет новых непрочитанных сообщений. Отряд самоубийц / Suicide Squad (Фантастика, боевик, триллер, комедия, криминал, приключения, 2016) BDRemux 1080p от ExKinoRay | Расширенная версия | D, A

marya111

305 | 78

32.2 ГБ


Начать новую тему Ответить на тему  [ 1 сообщение ] 




Для Мосгорсуда, Роскомнадзора и рекламодателей:: mosgorsud-torrent[собачка]yandex.ru