Торрент файл
скачать торрент магнет ссылка Добавлен: 24 окт 2017, 20:59
Размер: 3.67 ГБ
Сидеров: 49
Личеров: 34
Статус: (salma3)
Автор

СообщениеДобавлено: 24 окт 2017, 20:59 

В сети
Супермодератор
Аватара пользователя
Дата регистрации:
15 фев 2012, 16:44
Возраст: 28
Спасибо: 7223 / 2147
Сообщения: 67695
Год выпуска: 1995
Жанр: военный, драма
Выпущено: Австралия, США
Продолжительность: 01:46:02
Перевод: Профессиональный многоголосый, профессиональный двухголосый, авторский одноголосый
Режиссер: Брайан Тренчард-Смит
В ролях: Джеймс Белуши, Элан Дэвид Ли, Саймон Уэстэуэй, Марк Ли, Майкл Мэсси, Роберт Уиздом, Анджело Д'Анджело, Пол Эмпсон, Уильям Апджон, Тодд МакДоналд, Джулиан Гарнер, Александер Петерсонс, Джером Элерс, Дэвид Слингсби, Клаус Дайсон, Марк Гербер, Симон Элпахи

О фильме:
Северная Африка, 1942 год. После боев с армией немецкого генерала Роммеля от танкового батальона, в котором служит сержант Джо Ганн, остается только его любимая боевая машина, которую он ласково называет Бель Лу. Отступать можно только на юг. Собрав оставшихся в живых солдат, сержант Ганн на танке ищет воду в раскаленных песках Сахары. Интернациональная команда находит пересыхающий колодец, к которому по их следу идет немецкий отряд. Однако на немцев воды там уже не хватит! Наполнив фляги, горстка солдат принимает бой.



Файл
Качество: WEB-DLRip 720p
Видео: MPEG-4 AVC, 3379 Кбит/сек, 960x720, 23,976 кадра/сек
Аудио 1: Русский: AC3, 2 ch, 192 Кбит/сек |MVO, Русский дубляж|
Аудио 2: Русский: AC3, 2 ch, 192 Кбит/сек |MVO, Первый канал|
Аудио 3: Русский: AC3, 2 ch, 224 Кбит/сек |DVO, НТВ+|
Аудио 4: Русский: AC3, 2 ch, 192 Кбит/сек |AVO, А. Гаврилов|
Аудио 5: Русский: AC3, 2 ch, 192 Кбит/сек |AVO, В. Горчаков|
Аудио 6: Русский: AC3, 2 ch, 192 Кбит/сек |AVO, С. Визгунов|
Аудио 7: Русский: AC3, 2 ch, 192 Кбит/сек |AVO, Е. Гаевский|
Аудио 8: Английский: AC3, 2 ch, 192 Кбит/сек |Оригинал|
Субтитры: Английские
Навигация по главам: есть

Релиз от:



x264 [info]: frame I:1211 Avg QP:13.54 size: 108217
x264 [info]: frame P:31455 Avg QP:17.16 size: 39247
x264 [info]: frame B:119860 Avg QP:19.11 size: 11119
-----------------------------------------------------------------------
Общее
Уникальный идентификатор : 244537990936840799823703769053330942490 (0xB7F84DCE4306B3E38265EFE0AB902A1A)
Полное имя : Сахара.1995.WEB-DLRip.720p.KORSAR.mkv
Формат : Matroska
Версия формата : Version 2
Размер файла : 3,67 Гбайт
Продолжительность : 1 ч. 46 м.
Общий поток : 4950 Кбит/сек
Дата кодирования : UTC 2017-08-27 12:04:23
Программа кодирования : mkvmerge v5.8.0 ('No Sleep / Pillow') built on Sep 2 2012 15:37:04
Библиотека кодирования : libebml v1.2.3 + libmatroska v1.3.0

Видео
Идентификатор : 1
Формат : AVC
Формат/Информация : Advanced Video Codec
Профиль формата : High@L4.1
Параметр CABAC формата : Да
Параметр ReFrames формата : 12 кадров
Идентификатор кодека : V_MPEG4/ISO/AVC
Продолжительность : 1 ч. 46 м.
Битрейт : 3379 Кбит/сек
Ширина : 960 пикселей
Высота : 720 пикселей
Соотношение сторон : 4:3
Режим частоты кадров : Постоянный
Частота кадров : 23,976 (24000/1001) кадра/сек
Цветовое пространство : YUV
Субдискретизация насыщенности : 4:2:0
Битовая глубина : 8 бит
Тип развёртки : Прогрессивная
Бит/(Пиксели*Кадры) : 0.204
Размер потока : 2,43 Гбайт (66%)
Заголовок : RIP | MZMA
Библиотека кодирования : x264 core 148 r2638 7599210
Настройки программы : cabac=1 / ref=12 / deblock=1:-2:-2 / analyse=0x3:0x113 / me=umh / subme=11 / psy=1 / psy_rd=1.00:0.00 / mixed_ref=1 / me_range=48 / chroma_me=1 / trellis=2 / 8x8dct=1 / cqm=0 / deadzone=21,11 / fast_pskip=0 / chroma_qp_offset=-2 / threads=6 / lookahead_threads=1 / sliced_threads=0 / nr=0 / decimate=0 / interlaced=0 / bluray_compat=0 / constrained_intra=0 / bframes=16 / b_pyramid=2 / b_adapt=2 / b_bias=0 / direct=3 / weightb=1 / open_gop=0 / weightp=2 / keyint=250 / keyint_min=23 / scenecut=40 / intra_refresh=0 / rc_lookahead=60 / rc=2pass / mbtree=1 / bitrate=3379 / ratetol=1.0 / qcomp=0.60 / qpmin=0 / qpmax=69 / qpstep=4 / cplxblur=20.0 / qblur=0.5 / vbv_maxrate=50000 / vbv_bufsize=62500 / nal_hrd=none / filler=0 / ip_ratio=1.40 / aq=3:1.00
Язык : English
Default : Да
Forced : Нет
Цветовой диапазон : Limited
Основные цвета : BT.709
Характеристики трансфера : BT.709
Коэффициенты матрицы : BT.709

Аудио #1
Идентификатор : 2
Формат : AC-3
Формат/Информация : Audio Coding 3
Параметр Endianness формата : Big
Идентификатор кодека : A_AC3
Продолжительность : 1 ч. 46 м.
Вид битрейта : Постоянный
Битрейт : 192 Кбит/сек
Каналы : 2 канала
Расположение каналов : Front: L R
Частота : 48,0 КГц
Частота кадров : 31,250 кадров/сек (1536 spf)
Битовая глубина : 16 бит
Метод сжатия : С потерями
Размер потока : 146 Мбайт (4%)
Заголовок : MVO | Русский дубляж
Язык : Russian
Default : Да
Forced : Нет

Аудио #2
Идентификатор : 3
Формат : AC-3
Формат/Информация : Audio Coding 3
Параметр Endianness формата : Big
Идентификатор кодека : A_AC3
Продолжительность : 1 ч. 46 м.
Вид битрейта : Постоянный
Битрейт : 192 Кбит/сек
Каналы : 2 канала
Расположение каналов : Front: L R
Частота : 48,0 КГц
Частота кадров : 31,250 кадров/сек (1536 spf)
Битовая глубина : 16 бит
Метод сжатия : С потерями
Размер потока : 146 Мбайт (4%)
Заголовок : MVO | Первый канал
Язык : Russian
Default : Нет
Forced : Нет

Аудио #3
Идентификатор : 4
Формат : AC-3
Формат/Информация : Audio Coding 3
Параметр Endianness формата : Big
Идентификатор кодека : A_AC3
Продолжительность : 1 ч. 46 м.
Вид битрейта : Постоянный
Битрейт : 224 Кбит/сек
Каналы : 2 канала
Расположение каналов : Front: L R
Частота : 48,0 КГц
Частота кадров : 31,250 кадров/сек (1536 spf)
Битовая глубина : 16 бит
Метод сжатия : С потерями
Размер потока : 170 Мбайт (5%)
Заголовок : DVO | НТВ+
Язык : Russian
Default : Нет
Forced : Нет

Аудио #4
Идентификатор : 5
Формат : AC-3
Формат/Информация : Audio Coding 3
Параметр Endianness формата : Big
Идентификатор кодека : A_AC3
Продолжительность : 1 ч. 46 м.
Вид битрейта : Постоянный
Битрейт : 192 Кбит/сек
Каналы : 2 канала
Расположение каналов : Front: L R
Частота : 48,0 КГц
Частота кадров : 31,250 кадров/сек (1536 spf)
Битовая глубина : 16 бит
Метод сжатия : С потерями
Размер потока : 146 Мбайт (4%)
Заголовок : AVO | А. Гаврилов
Язык : Russian
Default : Нет
Forced : Нет

Аудио #5
Идентификатор : 6
Формат : AC-3
Формат/Информация : Audio Coding 3
Параметр Endianness формата : Big
Идентификатор кодека : A_AC3
Продолжительность : 1 ч. 46 м.
Вид битрейта : Постоянный
Битрейт : 192 Кбит/сек
Каналы : 2 канала
Расположение каналов : Front: L R
Частота : 48,0 КГц
Частота кадров : 31,250 кадров/сек (1536 spf)
Битовая глубина : 16 бит
Метод сжатия : С потерями
Размер потока : 146 Мбайт (4%)
Заголовок : AVO | В. Горчаков
Язык : Russian
Default : Нет
Forced : Нет

Аудио #6
Идентификатор : 7
Формат : AC-3
Формат/Информация : Audio Coding 3
Параметр Endianness формата : Big
Идентификатор кодека : A_AC3
Продолжительность : 1 ч. 46 м.
Вид битрейта : Постоянный
Битрейт : 192 Кбит/сек
Каналы : 2 канала
Расположение каналов : Front: L R
Частота : 48,0 КГц
Частота кадров : 31,250 кадров/сек (1536 spf)
Битовая глубина : 16 бит
Метод сжатия : С потерями
Размер потока : 146 Мбайт (4%)
Заголовок : AVO | С. Визгунов
Язык : Russian
Default : Нет
Forced : Нет

Аудио #7
Идентификатор : 8
Формат : AC-3
Формат/Информация : Audio Coding 3
Параметр Endianness формата : Big
Идентификатор кодека : A_AC3
Продолжительность : 1 ч. 46 м.
Вид битрейта : Постоянный
Битрейт : 192 Кбит/сек
Каналы : 2 канала
Расположение каналов : Front: L R
Частота : 48,0 КГц
Частота кадров : 31,250 кадров/сек (1536 spf)
Битовая глубина : 16 бит
Метод сжатия : С потерями
Размер потока : 146 Мбайт (4%)
Заголовок : VO | Е. Гаевский
Язык : Russian
Default : Нет
Forced : Нет

Аудио #8
Идентификатор : 9
Формат : AC-3
Формат/Информация : Audio Coding 3
Параметр Endianness формата : Big
Идентификатор кодека : A_AC3
Продолжительность : 1 ч. 46 м.
Вид битрейта : Постоянный
Битрейт : 192 Кбит/сек
Каналы : 2 канала
Расположение каналов : Front: L R
Частота : 48,0 КГц
Частота кадров : 31,250 кадров/сек (1536 spf)
Битовая глубина : 16 бит
Метод сжатия : С потерями
Размер потока : 146 Мбайт (4%)
Заголовок : Original
Язык : English
Default : Нет
Forced : Нет

Текст
Идентификатор : 10
Формат : UTF-8
Идентификатор кодека : S_TEXT/UTF8
Идентификатор кодека/Информация : UTF-8 Plain Text
Язык : English
Default : Нет
Forced : Нет

Меню
00:00:00.000 : en:Chapter 1
00:10:00.200 : en:Chapter 2
00:20:00.500 : en:Chapter 3
00:30:00.468 : en:Chapter 4
00:40:00.402 : en:Chapter 5
00:50:00.402 : en:Chapter 6
01:00:00.203 : en:Chapter 7
01:10:00.336 : en:Chapter 8
01:20:00.503 : en:Chapter 9
01:30:00.471 : en:Chapter 10
01:40:00.072 : en:Chapter 11
01:45:54.040 : en:Chapter 12


_________________
Проголосуй за трекер Открытый торрент трекер - RUS-MEDIA.ORG

Проголосуй Открытый торрент трекер - RUS-MEDIA.ORG


Вернуться к началу
 Профиль Отправить личное сообщение  
 
   Похожие торренты   Автор   Торрент   Размер 
В этой теме нет новых непрочитанных сообщений. Сахара / Sahara [боевик, военный, 1995] WEB-DL 1080p, Mvo

salma3

41 | 7

8.42 ГБ

В этой теме нет новых непрочитанных сообщений. Сахара / Sahara [Мультфильм, комедия, приключени, 2017] WEBRip 720p, Mvo

salma3

737 | 117

2.18 ГБ

В этой теме нет новых непрочитанных сообщений. Сахара / Sahara [Боевик, приключения, 2005] HDRip, Dub

salma3

137 | 30

2.18 ГБ

В этой теме нет новых непрочитанных сообщений. Сахара / Sahara [Мультфильм, комедия, приключени, 2017] HDRip, Mvo

salma3

0 | 0

1.36 ГБ

В этой теме нет новых непрочитанных сообщений. Сахара / Sahara [боевик, триллер, комедия, 2005] HDRip, Dub

salma3

19 | 4

1.45 ГБ

В этой теме нет новых непрочитанных сообщений. Сахара / Sahara [Мультфильм, комедия, приключения, 2017] WEBRip 1080p, Mvo

salma3

2379 | 408

2.62 ГБ

В этой теме нет новых непрочитанных сообщений. Храброе сердце / Braveheart [драма, военный, биография, история, 1995] BDRip 720p, Dub [iPad]

salma3

10 | 1

4.92 ГБ


Начать новую тему Ответить на тему  [ 1 сообщение ] 




Для Мосгорсуда, Роскомнадзора и рекламодателей:: mosgorsud-torrent[собачка]yandex.ru
cron