Торрент файл
скачать торрент магнет ссылка Добавлен: 23 окт 2017, 03:14
Размер: 9.03 ГБ
Сидеров: 21
Личеров: 7
Статус: (salma3)
Автор

СообщениеДобавлено: 23 окт 2017, 03:14 

Не в сети
Супермодератор
Аватара пользователя
Дата регистрации:
15 фев 2012, 16:44
Возраст: 28
Спасибо: 6640 / 2146
Сообщения: 45613
Год выхода: 1997
Жанр: фантастика, боевик, драма
Режиссер: Кевин Костнер

В ролях: Кевин Костнер, Уилл Пэттон, Лоренц Тейт, Оливия Уильямс, Джеймс Руссо, Дэниэл фон Барген, Том Петти, Скотт Бэйрстоу, Джованни Рибизи, Роберта Максвелл

О фильме:
Фильм снят по книге Дэвида Брина. Действие происходит в будущем. После глобальной войны и эпидемии выжившие остатки людей селятся разрозненными группами на территории бывших Соединенных Штатов Америки.
Герой Кевина Костнера предпочитает жить одиночкой. Он скитается вместе со своим дрессированным мулом из селения в селение, давая представления из Шекспира. Правит всем тиран — генерал Бетлехем. Его армия собирает дань и рекрутов со всех, кто пытается жить мирно. Героя фильма насильно взяли в армию генерала, но он бежал и нашел в джипе скелет почтальона, надел его форму и взял сумку с письмами. Придя в один из лагерей, он представился почтальоном новых возрожденных Соединенных Штатов Америки. Люди поверили ему, также в городке он нашел свою любовь… Десятки последователей почтальона стали доставлять письма, что привело к вооруженному столкновению сил генерала с новой армией Свободы.



Страна: США
Продолжительность: 02:57:49
Перевод: Дубляж, профессиональный [многоголосый]

Файл
Кодек: HEVC x265 8bit
Качество: BDRip-HEVC 1080p
Видео: 1912x796, 23.976 кадр/сек, 5606 Кбит/сек, 8bit
Звук:
Аудио1: Русская, AC3 640 Кбит/сек, 6 канала(ов),16bit 48,0 КГц (Дубляж)
Аудио2: Русская, AC3 384 Кбит/сек, 6 канала(ов),16bit 48,0 КГц (MVO Карусель)
Аудио3: English, AC3 640 Кбит/сек, 6 канала(ов),16bit 48,0 КГц
Субтитры: Русские, English

General
Unique ID : 230488349868277695154224709165290973308 (0xAD6671051EAA7FDDAC785778C279687C)
Format : Matroska
Format version : Version 4 / Version 2
File size : 9.03 GiB
Duration : 2 h 57 min
Overall bit rate : 7 271 kb/s
Encoded date : UTC 2017-09-08 17:11:37
Writing application : mkvmerge v13.0.0 ('The Juggler') 64bit
Writing library : libebml v1.3.4 + libmatroska v1.4.5
Cover : Yes
Attachments : cover.jpg

Video
ID : 1
Format : HEVC
Format/Info : High Efficiency Video Coding
Format profile : Main@L4.1@High
Codec ID : V_MPEGH/ISO/HEVC
Duration : 2 h 57 min
Bit rate : 5 606 kb/s
Width : 1 912 pixels
Height : 796 pixels
Display aspect ratio : 2.40:1
Frame rate mode : Constant
Frame rate : 23.976 (24000/1001) FPS
Color space : YUV
Chroma subsampling : 4:2:0
Bit depth : 8 bits
Bits/(Pixel*Frame) : 0.154
Stream size : 6.96 GiB (77%)
Writing library : x265 2.5+12-fcd9154fa4e2:[Windows][GCC 7.1.0][64 bit] 8bit
Encoding settings : cpuid=1050111 / frame-threads=5 / numa-pools=4 / wpp / no-pmode / no-pme / no-psnr / no-ssim / log-level=3 / input-csp=1 / input-res=1912x796 / interlace=0 / total-frames=0 / level-idc=41 / high-tier=1 / uhd-bd=0 / ref=4 / no-allow-non-conformance / no-repeat-headers / annexb / no-aud / no-hrd / info / hash=0 / no-temporal-layers / open-gop / min-keyint=23 / keyint=240 / bframes=10 / b-adapt=2 / b-pyramid / bframe-bias=0 / rc-lookahead=40 / lookahead-slices=5 / scenecut=40 / no-intra-refresh / ctu=64 / min-cu-size=8 / no-rect / no-amp / max-tu-size=32 / tu-inter-depth=2 / tu-intra-depth=2 / limit-tu=0 / rdoq-level=0 / dynamic-rd=0.00 / no-ssim-rd / signhide / no-tskip / nr-intra=0 / nr-inter=0 / no-constrained-intra / strong-intra-smoothing / max-merge=3 / limit-refs=3 / no-limit-modes / me=2 / subme=4 / merange=32 / temporal-mvp / weightp / weightb / no-analyze-src-pics / deblock=-3:-3 / no-sao / no-sao-non-deblock / rd=3 / no-early-skip / rskip / no-fast-intra / no-tskip-fast / no-cu-lossless / no-b-intra / no-splitrd-skip / rdpenalty=0 / psy-rd=2.00 / psy-rdoq=0.00 / no-rd-refine / analysis-reuse-mode=0 / no-lossless / cbqpoffs=0 / crqpoffs=0 / rc=crf / crf=18.5 / qcomp=0.60 / qpstep=4 / stats-write=0 / stats-read=0 / vbv-maxrate=50000 / vbv-bufsize=35714 / vbv-init=0.9 / crf-max=30.0 / crf-min=0.0 / ipratio=1.40 / pbratio=1.30 / aq-mode=2 / aq-strength=1.00 / cutree / zone-count=0 / no-strict-cbr / qg-size=32 / no-rc-grain / qpmax=69 / qpmin=0 / no-const-vbv / sar=1 / overscan=0 / videoformat=5 / range=0 / colorprim=1 / transfer=1 / colormatrix=1 / chromaloc=0 / display-window=0 / max-cll=0,0 / min-luma=0 / max-luma=255 / log2-max-poc-lsb=8 / vui-timing-info / vui-hrd-info / slices=1 / opt-qp-pps / opt-ref-list-length-pps / no-multi-pass-opt-rps / scenecut-bias=0.05 / no-opt-cu-delta-qp / no-aq-motion / no-hdr / no-hdr-opt / no-dhdr10-opt / analysis-reuse-level=5 / scale-factor=0 / refine-intra=0 / refine-inter=0 / refine-mv=0 / no-limit-sao / ctu-info=0
Language : English
Default : Yes
Forced : No
Color range : Limited
Color primaries : BT.709
Transfer characteristics : BT.709
Matrix coefficients : BT.709

Audio #1
ID : 2
Format : AC-3
Format/Info : Audio Coding 3
Format settings, Endianness : Big
Codec ID : A_AC3
Duration : 2 h 57 min
Bit rate mode : Constant
Bit rate : 640 kb/s
Channel(s) : 6 channels
Channel positions : Front: L C R, Side: L R, LFE
Sampling rate : 48.0 kHz
Frame rate : 31.250 FPS (1536 SPF)
Bit depth : 16 bits
Compression mode : Lossy
Stream size : 814 MiB (9%)
Title : rus Dub
Language : Russian
Service kind : Complete Main
Default : Yes
Forced : No

Audio #2
ID : 3
Format : AC-3
Format/Info : Audio Coding 3
Format settings, Endianness : Big
Codec ID : A_AC3
Duration : 2 h 57 min
Bit rate mode : Constant
Bit rate : 384 kb/s
Channel(s) : 6 channels
Channel positions : Front: L C R, Side: L R, LFE
Sampling rate : 48.0 kHz
Frame rate : 31.250 FPS (1536 SPF)
Bit depth : 16 bits
Compression mode : Lossy
Delay relative to video : 24 ms
Stream size : 489 MiB (5%)
Title : Rus MVO
Language : Russian
Service kind : Complete Main
Default : No
Forced : No

Audio #3
ID : 4
Format : AC-3
Format/Info : Audio Coding 3
Format settings, Endianness : Big
Codec ID : A_AC3
Duration : 2 h 57 min
Bit rate mode : Constant
Bit rate : 640 kb/s
Channel(s) : 6 channels
Channel positions : Front: L C R, Side: L R, LFE
Sampling rate : 48.0 kHz
Frame rate : 31.250 FPS (1536 SPF)
Bit depth : 16 bits
Compression mode : Lossy
Stream size : 814 MiB (9%)
Language : English
Service kind : Complete Main
Default : No
Forced : No

Text #1
ID : 5
Format : UTF-8
Codec ID : S_TEXT/UTF8
Codec ID/Info : UTF-8 Plain Text
Duration : 2 h 50 min
Bit rate : 72 b/s
Count of elements : 1742
Stream size : 90.3 KiB (0%)
Language : Russian
Default : Yes
Forced : No

Text #2
ID : 6
Format : UTF-8
Codec ID : S_TEXT/UTF8
Codec ID/Info : UTF-8 Plain Text
Duration : 2 h 50 min
Bit rate : 37 b/s
Count of elements : 1799
Stream size : 46.6 KiB (0%)
Language : English
Default : No
Forced : No

Menu
00:00:00.000 : :Глава 1
00:03:48.978 : :Глава 2
00:06:53.204 : :Глава 3
00:11:18.427 : :Глава 4
00:15:33.932 : :Глава 5
00:21:55.314 : :Глава 6
00:27:15.050 : :Глава 7
00:30:55.228 : :Глава 8
00:34:45.541 : :Глава 9
00:38:04.907 : :Глава 10
00:41:08.299 : :Глава 11
00:44:11.857 : :Глава 12
00:50:03.333 : :Глава 13
00:55:13.643 : :Глава 14
00:58:39.807 : :Глава 15
01:02:12.645 : :Глава 16
01:04:50.636 : :Глава 17
01:08:37.404 : :Глава 18
01:14:04.148 : :Глава 19
01:17:34.232 : :Глава 20
01:20:45.799 : :Глава 21
01:26:43.406 : :Глава 22
01:30:11.197 : :Глава 23
01:32:59.365 : :Глава 24
01:34:40.925 : :Глава 25
01:37:09.156 : :Глава 26
01:41:00.888 : :Глава 27
01:43:07.097 : :Глава 28
01:47:08.839 : :Глава 29
01:52:51.264 : :Глава 30
02:00:31.265 : :Глава 31
02:07:00.070 : :Глава 32
02:11:41.602 : :Глава 33
02:17:03.089 : :Глава 34
02:20:05.688 : :Глава 35
02:22:09.270 : :Глава 36
02:26:00.752 : :Глава 37
02:30:58.966 : :Глава 38
02:33:39.418 : :Глава 39
02:36:10.069 : :Глава 40
02:39:22.843 : :Глава 41
02:42:21.857 : :Глава 42
02:47:36.879 : :Глава 43
02:51:35.284 : :Глава 44
02:57:49.450 : :Глава 45


Релиз от: Cthulhu


_________________
Проголосуй за трекер Открытый торрент трекер - RUS-MEDIA.ORG

Проголосуй Открытый торрент трекер - RUS-MEDIA.ORG



реклама партнёра


Вернуться к началу
 Профиль Отправить личное сообщение  
 
   Похожие торренты   Автор   Торрент   Размер 
В этой теме нет новых непрочитанных сообщений. Почтальон / The Postman [фантастика, боевик, драма, 1997] BDRip-AVC, Dub

salma3

105 | 52

1.45 ГБ

В этой теме нет новых непрочитанных сообщений. Почтальон / The Postman [фантастика, боевик, драма, 1997] HDRip, Dub

salma3

41 | 14

2.18 ГБ

В этой теме нет новых непрочитанных сообщений. Почтальон / The Postman [фантастика, боевик, драма, 1997] HDRip, Dub

salma3

19 | 2

1.46 ГБ

В этой теме нет новых непрочитанных сообщений. Чужой 4: Воскрешение / Alien: Resurrection [фантастика, боевик, триллер, 1997] BDRip-HEVC 1080p, Dub [Special Edition]

salma3

35 | 16

7.35 ГБ

В этой теме нет новых непрочитанных сообщений. Солдат / Soldier [фантастика, боевик, драма, 1998] BDRip-HEVC 1080p, Dub

salma3

130 | 33

4.19 ГБ

В этой теме нет новых непрочитанных сообщений. Мстители / The Avengers [боевик, фантастика, 2012] BDRip-HEVC 1080p, Dub

salma3

1 | 43

4.89 ГБ

В этой теме нет новых непрочитанных сообщений. Суррогаты / Surrogates [фантастика, боевик, триллер, 2009] BDRip-HEVC 1080p, Dub

salma3

142 | 19

3.96 ГБ


Начать новую тему Ответить на тему  [ 1 сообщение ] 




Для Мосгорсуда, Роскомнадзора и рекламодателей:: mosgorsud-torrent[собачка]yandex.ru