Торрент файл
скачать торрент магнет ссылка Добавлен: 22 окт 2017, 20:54
Размер: 9.95 ГБ
Сидеров: 2
Личеров: 18
Статус: (salma3)
Автор

СообщениеДобавлено: 22 окт 2017, 20:54 

Не в сети
Супермодератор
Аватара пользователя
Дата регистрации:
15 фев 2012, 16:44
Возраст: 28
Спасибо: 6643 / 2146
Сообщения: 45809
Год выхода: 2000
Жанр: драма, мелодрама, комедия
Режиссер: Дэвид МакНэлли

В ролях: Пайпер Перабо, Адам Гарсия, Джон Гудман, Мария Белло, Изабелла Мико, Тайра Бэнкс, Бриджет Мойнэхэн, Мелани Лински, Дель Пентекост, Майкл Уэстон

О фильме:
Вайолет всю жизнь прожила на окраине и мечтала стать певицей. Но ее никогда не покидал страх перед освещенной сценой и шумной толпой. Наконец, мечта привела ее в Нью-Йорк, где Вайолет устроилась на работу официанткой в знаменитый бар «Гадкий Койот», где правят бал только красивые и решительные. В обществе неотразимых красавиц, чьи манеры пугают ханжей и привлекают мужчин, Вайолет должна преодолеть природную застенчивость и услышать собственный голос.



Страна: США
Продолжительность: 01:40:56
Перевод: Профессиональный (дублированный) R5 + Профессиональный (многоголосый, закадровый) ОРТ + Авторский (одноголосый, закадровый) Ю.Живов + Профессиональный (многоголосый, закадровый) 1+1

Релиз:

Файл
Качество: WEB-DL 1080p
Формат: Matroska
Видео: 1920x1080 at 23.976 fps, MPEG-4 AVC, ~12200 kbps avg
Аудио#1: Russian: 48 kHz, AC3, 2/0 (L,R) ch, ~192 kbps avg |Дубляж, R5|
Аудио#2: Russian: 48 kHz, AC3, 2/0 (L,R) ch, ~224 kbps avg |Многоголосый закадровый, ОРТ|
Аудио#3: Russian: 48 kHz, AC3, 3/2 (L,C,R,l,r) + LFE ch, ~384 kbps avg |Авторский, Ю.Живов|
Аудио#4: Ukrainian: 48 kHz, AC3, 2/0 (L,R) ch, ~224 kbps avg |Многоголосый закадровый, 1+1|
Аудио#5: English: 48 kHz, EAC3, 3/2 (L,C,R,l,r) + LFE ch, ~640 kbps avg
Субтитры: Russian, English

***Исходник видео - WEB-DL Amazon.
***Open Matte версия фильма имеет большее наполнение кадра, по сравнению с Blu-ray.

Из фильма вырезали полную секс-сцену Пайпер Перабо и Адама Гарсия.
Первый бар «Гадкий койот» открылся 27 января 1993 в Нью-Йорке, после того как выпускница нью-йоркского университета Лилиана Ловелл отказалась от стажировки на Уолл-стрит в пользу работы барменом. Этот бар и послужил местом съемок фильма.
[*]Основой для фильма послужила автобиографическая статья Элизабет Гилберт «Муза салона Гадкий койот» («The Muse of the Coyote Ugly Saloon») для журнала GQ, опубликованная в 1997 году и повествующая о временах, когда она работала в первом танцевальном баре «Гадкий койот» в Ист-Виллидж.
Общее
Уникальный идентификатор : 203773131092110300085943255488019189942 (0x994D470A72DC3510AD7A55252D8650B6)
Полное имя : Coyote Ugly (2000) WEB-DL 1080p [Open Matte] -BLUEBIRD.mkv
Формат : Matroska
Версия формата : Version 4 / Version 2
Размер файла : 9,95 Гбайт
Продолжительность : 1 ч. 40 м.
Режим общего битрейта : Переменный
Общий поток : 14,1 Мбит/сек
Дата кодирования : UTC 2017-10-20 13:12:30
Программа кодирования : mkvmerge v17.0.0 ('Be Ur Friend') 64-bit
Библиотека кодирования : libebml v1.3.5 + libmatroska v1.4.8

Видео
Идентификатор : 1
Формат : AVC
Формат/Информация : Advanced Video Codec
Профиль формата : High@L4.0
Параметр CABAC формата : Да
Параметр ReFrames формата : 4 кадра
Идентификатор кодека : V_MPEG4/ISO/AVC
Продолжительность : 1 ч. 40 м.
Вид битрейта : Переменный
Битрейт : 12,2 Мбит/сек
Максимальный битрейт : 15,0 Мбит/сек
Ширина : 1920 пикселей
Высота : 1080 пикселей
Соотношение сторон : 16:9
Режим частоты кадров : Постоянный
Частота кадров : 23,976 кадра/сек
Цветовое пространство : YUV
Субдискретизация насыщенности : 4:2:0
Битовая глубина : 8 бит
Тип развёртки : Прогрессивная
Бит/(Пиксели*Кадры) : 0.245
Размер потока : 8,58 Гбайт (86%)
Язык : English
Default : Да
Forced : Нет
Основные цвета : BT.709
Характеристики трансфера : BT.709
Коэффициенты матрицы : BT.709

Аудио #1
Идентификатор : 2
Формат : AC-3
Формат/Информация : Audio Coding 3
Расширение режима : CM (complete main)
Параметр Endianness формата : Big
Идентификатор кодека : A_AC3
Продолжительность : 1 ч. 40 м.
Вид битрейта : Постоянный
Битрейт : 192 Кбит/сек
Каналы : 2 канала
Расположение каналов : Front: L R
Частота : 48,0 КГц
Битовая глубина : 16 бит
Метод сжатия : С потерями
Размер потока : 139 Мбайт (1%)
Заголовок : Дубляж
Язык : Russian
Default : Нет
Forced : Нет

Аудио #2
Идентификатор : 3
Формат : AC-3
Формат/Информация : Audio Coding 3
Расширение режима : CM (complete main)
Параметр Endianness формата : Big
Идентификатор кодека : A_AC3
Продолжительность : 1 ч. 40 м.
Вид битрейта : Постоянный
Битрейт : 224 Кбит/сек
Каналы : 2 канала
Расположение каналов : Front: L R
Частота : 48,0 КГц
Битовая глубина : 16 бит
Метод сжатия : С потерями
Размер потока : 162 Мбайт (2%)
Заголовок : ОРТ
Язык : Russian
Default : Нет
Forced : Нет

Аудио #3
Идентификатор : 4
Формат : AC-3
Формат/Информация : Audio Coding 3
Расширение режима : CM (complete main)
Параметр Endianness формата : Big
Идентификатор кодека : A_AC3
Продолжительность : 1 ч. 40 м.
Вид битрейта : Постоянный
Битрейт : 384 Кбит/сек
Каналы : 6 каналов
Расположение каналов : Front: L C R, Side: L R, LFE
Частота : 48,0 КГц
Битовая глубина : 16 бит
Метод сжатия : С потерями
Размер потока : 277 Мбайт (3%)
Заголовок : Ю.Живов
Язык : Russian
Default : Нет
Forced : Нет

Аудио #4
Идентификатор : 5
Формат : AC-3
Формат/Информация : Audio Coding 3
Расширение режима : CM (complete main)
Параметр Endianness формата : Big
Идентификатор кодека : A_AC3
Продолжительность : 1 ч. 40 м.
Вид битрейта : Постоянный
Битрейт : 224 Кбит/сек
Каналы : 2 канала
Расположение каналов : Front: L R
Частота : 48,0 КГц
Битовая глубина : 16 бит
Метод сжатия : С потерями
Размер потока : 162 Мбайт (2%)
Заголовок : 1+1
Язык : Ukrainian
Default : Нет
Forced : Нет

Аудио #5
Идентификатор : 6
Формат : E-AC-3
Формат/Информация : Audio Coding 3
Параметр Endianness формата : Big
Идентификатор кодека : A_EAC3
Продолжительность : 1 ч. 40 м.
Вид битрейта : Постоянный
Битрейт : 640 Кбит/сек
Каналы : 6 каналов
Расположение каналов : Front: L C R, Side: L R, LFE
Частота : 48,0 КГц
Метод сжатия : С потерями
Размер потока : 462 Мбайт (5%)
Язык : English
Default : Нет
Forced : Нет

Текст #1
Идентификатор : 7
Формат : UTF-8
Идентификатор кодека : S_TEXT/UTF8
Идентификатор кодека/Информация : UTF-8 Plain Text
Язык : Russian
Default : Нет
Forced : Нет

Текст #2
Идентификатор : 8
Формат : UTF-8
Идентификатор кодека : S_TEXT/UTF8
Идентификатор кодека/Информация : UTF-8 Plain Text
Язык : English
Default : Нет
Forced : Нет

Текст #3
Идентификатор : 9
Формат : UTF-8
Идентификатор кодека : S_TEXT/UTF8
Идентификатор кодека/Информация : UTF-8 Plain Text
Default : Нет
Forced : Нет


_________________
Проголосуй за трекер Открытый торрент трекер - RUS-MEDIA.ORG

Проголосуй Открытый торрент трекер - RUS-MEDIA.ORG



реклама партнёра


Вернуться к началу
 Профиль Отправить личное сообщение  
 
   Похожие торренты   Автор   Торрент   Размер 
В этой теме нет новых непрочитанных сообщений. Голая правда / The Ugly Truth [мелодрама, комедия, 2009] WEB-DLRip, Dub [Open Matte]

salma3

57 | 13

1.45 ГБ

В этой теме нет новых непрочитанных сообщений. Хэнкок / Hancock [фантастика, боевик, драма, 2008] WEB-DL 1080p, Dub [Theatrical Cut] [Open Matte]

salma3

20 | 3

9.05 ГБ

В этой теме нет новых непрочитанных сообщений. Мальчишник в Вегасе / The Hangover [комедия, 2009] WEB-DLRip-AVC, Dub [Theatrical Cut] [Open Matte]

salma3

2 | 2

2.18 ГБ

В этой теме нет новых непрочитанных сообщений. Доказательство жизни / Proof of Life [боевик, триллер, драма, 2000] WEB-DL 1080p, Dub [Open Matte]

salma3

10 | 7

11.63 ГБ

В этой теме нет новых непрочитанных сообщений. Рэмбо IV / Rambo [боевик, военный, 2008] Blu-Ray 1080i, Dub [Theatrical Cut] [Open Matte]

salma3

0 | 33

25.64 ГБ

В этой теме нет новых непрочитанных сообщений. Титаник / Titanic [Драма, катастрофа, мелодрама, 1997] BDRemux 1080p, Dub [Open Matte]

salma3

5 | 2

59.66 ГБ

В этой теме нет новых непрочитанных сообщений. Три короля / Three Kings [боевик, драма, комедия, 1999] WEB-DL 1080p, Dub [Open Matte]

salma3

2 | 1

14.23 ГБ


Начать новую тему Ответить на тему  [ 1 сообщение ] 




Для Мосгорсуда, Роскомнадзора и рекламодателей:: mosgorsud-torrent[собачка]yandex.ru