Торрент файл
скачать торрент магнет ссылка Добавлен: 22 окт 2017, 11:39
Размер: 5.05 ГБ
Сидеров: 64
Личеров: 16
Статус: (salma3)
Автор

СообщениеДобавлено: 22 окт 2017, 11:39 

Не в сети
Супермодератор
Аватара пользователя
Дата регистрации:
15 фев 2012, 16:44
Возраст: 29
Спасибо: 7379 / 2147
Сообщения: 76077
Год выпуска: 1998
Жанр: боевик, комедия, мелодрама, приключения
Выпущено: США, Touchstone Pictures
Продолжительность: 01:41:55
Перевод: Дублированный, профессиональный многоголосый, профессиональный двухголосый, авторский
Режиссер: Айвэн Рейтмен

В ролях: Харрисон Форд, Энн Хеч, Дэвид Швиммер, Жаклин Обрадорс, Темуэра Моррисон, Эллисон Джэнни, Дуглас Уэстон, Клифф Кертис, Дэнни Трехо, Бен Боуд, Дерек Баско, Эми Седарис, Лонг Нгуйен, Джен Санг Отербридж, Майкл Чэпмен, Грег Горман, Хойт Ричардс, Джоди Коно, Присцилла Ли Тейлор, Натали Госс, Christian Martson, Джейсон С. Николс Фред Лант, Карлос Андраде, Мервин Лило


О фильме:
Небольшой самолет терпит катастрофу на необитаемом острове. Отважный летчик и его очаровательная пассажирка оказались совершенно одни среди дикой природы. Они отчаянно пытаются сообщить о себе, но не знают, что их уже давно перестали искать. Наконец, впервые за эти дни на пустынном горизонте показался странный корабль, который причалил к затерянному острову. Но вместо того, чтобы улыбнуться невезучей парочке, судьба снова посмеялась над ними. Вооруженные до зубов пираты так не похожи на долгожданных спасителей! Пилот и его спутница так стремились оказаться в веселой компании. Теперь они хотят снова остаться наедине.




Файл
Качество: WEBRip 720p
Видео: MPEG-4 AVC, 4880 Кбит/сек, 1280x540, 23,976 кадра/сек
Аудио 1: Русский: AC3, 6 ch, 384 Кбит/сек |Дублированный, Нева-1|
Аудио 2: Русский: AC3, 2 ch, 192 Кбит/сек |Профессиональный многоголосый, ОРТ|
Аудио 3: Русский: AC3, 2 ch, 224 Кбит/сек |Авторский одноголосый, С. Визгунов|
Аудио 4: Русский: AC3, 6 ch, 384 Кбит/сек |Авторский одноголосый, Ю. Живов|
Аудио 5: Русский: AC3, 2 ch, 192 Кбит/сек |Авторский одноголосый, Н. Антонов|
Аудио 6: Русский: AC3, 2 ch, 192 Кбит/сек |Авторский одноголосый, Диктор CDV|
Аудио 7: Английский: EAC3, 6 ch, 640 Кбит/сек |Оригинал|
Субтитры: Русские, английские, финские
Навигация по главам: есть

Релиз от: mzma

x264 [info]: frame I:823 Avg QP:13.67 size:130165
x264 [info]: frame P:36345 Avg QP:17.01 size: 51492
x264 [info]: frame B:109450 Avg QP:19.69 size: 16156
----------------------------------------------------------------------
Общее
Уникальный идентификатор : 178200280464762186721599563986711603882 (0x86102028EDDB511AB3BB40DEDAF3EAAA)
Полное имя : Шесть.дней.семь.ночей.1998.WEB-DLRip.720p.KORSAR.mkv
Формат : Matroska
Версия формата : Version 2
Размер файла : 5,05 Гбайт
Продолжительность : 1 ч. 41 м.
Общий поток : 7092 Кбит/сек
Дата кодирования : UTC 2017-09-04 01:47:50
Программа кодирования : mkvmerge v5.8.0 ('No Sleep / Pillow') built on Sep 2 2012 15:37:04
Библиотека кодирования : libebml v1.2.3 + libmatroska v1.3.0

Видео
Идентификатор : 1
Формат : AVC
Формат/Информация : Advanced Video Codec
Профиль формата : High@L4.1
Параметр CABAC формата : Да
Параметр ReFrames формата : 12 кадров
Идентификатор кодека : V_MPEG4/ISO/AVC
Продолжительность : 1 ч. 41 м.
Битрейт : 4880 Кбит/сек
Ширина : 1280 пикселей
Высота : 540 пикселей
Соотношение сторон : 2,40:1
Режим частоты кадров : Постоянный
Частота кадров : 23,976 (24000/1001) кадра/сек
Цветовое пространство : YUV
Субдискретизация насыщенности : 4:2:0
Битовая глубина : 8 бит
Тип развёртки : Прогрессивная
Бит/(Пиксели*Кадры) : 0.294
Размер потока : 3,38 Гбайт (67%)
Заголовок : RIP | MZMA
Библиотека кодирования : x264 core 148 r2638 7599210
Настройки программы : cabac=1 / ref=12 / deblock=1:-3:-3 / analyse=0x3:0x113 / me=umh / subme=11 / psy=1 / psy_rd=1.00:0.00 / mixed_ref=1 / me_range=48 / chroma_me=1 / trellis=2 / 8x8dct=1 / cqm=0 / deadzone=21,11 / fast_pskip=0 / chroma_qp_offset=-2 / threads=6 / lookahead_threads=1 / sliced_threads=0 / nr=0 / decimate=0 / interlaced=0 / bluray_compat=0 / constrained_intra=0 / bframes=16 / b_pyramid=2 / b_adapt=2 / b_bias=0 / direct=3 / weightb=1 / open_gop=0 / weightp=2 / keyint=250 / keyint_min=23 / scenecut=40 / intra_refresh=0 / rc_lookahead=60 / rc=2pass / mbtree=1 / bitrate=4880 / ratetol=1.0 / qcomp=0.60 / qpmin=0 / qpmax=69 / qpstep=4 / cplxblur=20.0 / qblur=0.5 / vbv_maxrate=50000 / vbv_bufsize=62500 / nal_hrd=none / filler=0 / ip_ratio=1.40 / aq=3:0.90
Язык : English
Default : Да
Forced : Нет
Цветовой диапазон : Limited
Основные цвета : BT.709
Характеристики трансфера : BT.709
Коэффициенты матрицы : BT.709

Аудио #1
Идентификатор : 2
Формат : AC-3
Формат/Информация : Audio Coding 3
Параметр Endianness формата : Big
Идентификатор кодека : A_AC3
Продолжительность : 1 ч. 41 м.
Вид битрейта : Постоянный
Битрейт : 384 Кбит/сек
Каналы : 6 каналов
Расположение каналов : Front: L C R, Side: L R, LFE
Частота : 48,0 КГц
Частота кадров : 31,250 кадров/сек (1536 spf)
Битовая глубина : 16 бит
Метод сжатия : С потерями
Задержка видео : 24 мс.
Размер потока : 280 Мбайт (5%)
Заголовок : DUB | Нева-1
Язык : Russian
Default : Да
Forced : Нет

Аудио #2
Идентификатор : 3
Формат : AC-3
Формат/Информация : Audio Coding 3
Параметр Endianness формата : Big
Идентификатор кодека : A_AC3
Продолжительность : 1 ч. 41 м.
Вид битрейта : Постоянный
Битрейт : 192 Кбит/сек
Каналы : 2 канала
Расположение каналов : Front: L R
Частота : 48,0 КГц
Частота кадров : 31,250 кадров/сек (1536 spf)
Битовая глубина : 16 бит
Метод сжатия : С потерями
Размер потока : 140 Мбайт (3%)
Заголовок : MVO | ОРТ
Язык : Russian
Default : Нет
Forced : Нет

Аудио #3
Идентификатор : 4
Формат : AC-3
Формат/Информация : Audio Coding 3
Параметр Endianness формата : Big
Идентификатор кодека : A_AC3
Продолжительность : 1 ч. 41 м.
Вид битрейта : Постоянный
Битрейт : 224 Кбит/сек
Каналы : 2 канала
Расположение каналов : Front: L R
Частота : 48,0 КГц
Частота кадров : 31,250 кадров/сек (1536 spf)
Битовая глубина : 16 бит
Метод сжатия : С потерями
Задержка видео : 24 мс.
Размер потока : 163 Мбайт (3%)
Заголовок : AVO | С. Визгунов
Язык : Russian
Default : Нет
Forced : Нет

Аудио #4
Идентификатор : 5
Формат : AC-3
Формат/Информация : Audio Coding 3
Параметр Endianness формата : Big
Идентификатор кодека : A_AC3
Продолжительность : 1 ч. 41 м.
Вид битрейта : Постоянный
Битрейт : 384 Кбит/сек
Каналы : 6 каналов
Расположение каналов : Front: L C R, Side: L R, LFE
Частота : 48,0 КГц
Частота кадров : 31,250 кадров/сек (1536 spf)
Битовая глубина : 16 бит
Метод сжатия : С потерями
Задержка видео : 24 мс.
Размер потока : 280 Мбайт (5%)
Заголовок : AVO | Ю. Живов
Язык : Russian
Default : Нет
Forced : Нет

Аудио #5
Идентификатор : 6
Формат : AC-3
Формат/Информация : Audio Coding 3
Параметр Endianness формата : Big
Идентификатор кодека : A_AC3
Продолжительность : 1 ч. 41 м.
Вид битрейта : Постоянный
Битрейт : 192 Кбит/сек
Каналы : 2 канала
Расположение каналов : Front: L R
Частота : 48,0 КГц
Частота кадров : 31,250 кадров/сек (1536 spf)
Битовая глубина : 16 бит
Метод сжатия : С потерями
Размер потока : 140 Мбайт (3%)
Заголовок : AVO | Н. Антонов
Язык : Russian
Default : Нет
Forced : Нет

Аудио #6
Идентификатор : 7
Формат : AC-3
Формат/Информация : Audio Coding 3
Параметр Endianness формата : Big
Идентификатор кодека : A_AC3
Продолжительность : 1 ч. 41 м.
Вид битрейта : Постоянный
Битрейт : 192 Кбит/сек
Каналы : 2 канала
Расположение каналов : Front: L R
Частота : 48,0 КГц
Частота кадров : 31,250 кадров/сек (1536 spf)
Битовая глубина : 16 бит
Метод сжатия : С потерями
Размер потока : 140 Мбайт (3%)
Заголовок : AVO | Диктор C.D.V
Язык : Russian
Default : Нет
Forced : Нет

Аудио #7
Идентификатор : 8
Формат : E-AC-3
Формат/Информация : Enhanced Audio Coding 3
Параметр Endianness формата : Big
Идентификатор кодека : A_EAC3
Продолжительность : 1 ч. 41 м.
Вид битрейта : Постоянный
Битрейт : 640 Кбит/сек
Каналы : 6 каналов
Расположение каналов : Front: L C R, Side: L R, LFE
Частота : 48,0 КГц
Частота кадров : 187,500 кадров/сек (256 spf)
Метод сжатия : С потерями
Размер потока : 467 Мбайт (9%)
Заголовок : Оригинал
Язык : English
Default : Нет
Forced : Нет

Текст #1
Идентификатор : 9
Формат : UTF-8
Идентификатор кодека : S_TEXT/UTF8
Идентификатор кодека/Информация : UTF-8 Plain Text
Язык : Russian
Default : Нет
Forced : Нет

Текст #2
Идентификатор : 10
Формат : UTF-8
Идентификатор кодека : S_TEXT/UTF8
Идентификатор кодека/Информация : UTF-8 Plain Text
Язык : English
Default : Нет
Forced : Нет

Текст #3
Идентификатор : 11
Формат : UTF-8
Идентификатор кодека : S_TEXT/UTF8
Идентификатор кодека/Информация : UTF-8 Plain Text
Заголовок : SDH
Язык : English
Default : Нет
Forced : Нет

Текст #4
Идентификатор : 12
Формат : UTF-8
Идентификатор кодека : S_TEXT/UTF8
Идентификатор кодека/Информация : UTF-8 Plain Text
Язык : Finnish
Default : Нет
Forced : Нет

Меню
00:00:00.000 : en:Program Start
00:00:26.984 : en:Credits/ Vacation Bound
00:05:23.984 : en:The Charter Plane
00:10:49.984 : en:Pilot And Philosopher
00:14:04.984 : en:Duty Calls
00:18:45.984 : en:Flying Into A Storm
00:21:25.984 : en:Trouble Brewing
00:27:31.984 : en:Shipwrecked
00:36:00.984 : en:Not Without Skills
00:43:59.984 : en:Misfire
00:46:35.984 : en:In Good Hands
00:48:32.984 : en:In Need Of A Beacon
00:53:57.984 : en:Dangerous Company
01:01:12.984 : en:Making A Jump For It
01:06:08.984 : en:Enticing Invitation
01:07:45.984 : en:Resisting The Invitation
01:10:28.984 : en:After A Terrible Ordeal
01:18:18.984 : en:Under Fire
01:22:28.984 : en:Hold The Funeral
01:27:29.984 : en:Keeping Things Simple
01:30:55.984 : en:The Engagement's Off
01:33:23.984 : en:Complicating Things
01:36:27.984 : en:End Credits


_________________
Проголосуй за трекер Открытый торрент трекер - RUS-MEDIA.ORG

Проголосуй Открытый торрент трекер - RUS-MEDIA.ORG


Вернуться к началу
 Профиль Отправить личное сообщение  
 
   Похожие торренты   Автор   Торрент   Размер 
В этой теме нет новых непрочитанных сообщений. Шесть дней, семь ночей / Six Days Seven Nights [Мелодрама, Комедия, Боевик, Приключения, 1998] WEBRip-AVC, Dub

salma3

69 | 10

2.92 ГБ

В этой теме нет новых непрочитанных сообщений. Шесть дней, семь ночей / Six Days Seven Nights [боевик, мелодрама, комедия, приключения, 1998] WEB-DL 720p, Dub

salma3

80 | 15

3.27 ГБ

В этой теме нет новых непрочитанных сообщений. Шесть дней, семь ночей / Six Days Seven Nights [боевик, мелодрама, комедия, 1998] WEBRip 1080p, Dub

salma3

42 | 19

9.11 ГБ

В этой теме нет новых непрочитанных сообщений. Шесть дней, семь ночей / Six Days Seven Nights [Мелодрама, Комедия, Боевик, Приключения, 1998] HDRip 1080p, Dub+Sub

salma3

0 | 0

4.37 ГБ

В этой теме нет новых непрочитанных сообщений. Шесть дней, семь ночей / Six Days Seven Nights [Комедия, мелодрама, приключения, 1998] DVDRip, Dub

salma3

64 | 9

1.37 ГБ

В этой теме нет новых непрочитанных сообщений. 40 дней и 40 ночей / 40 Days and 40 Nights [мелодрама, комедия, 2002] BDRip 1080p, Dub

salma3

130 | 55

7.75 ГБ

В этой теме нет новых непрочитанных сообщений. Вокруг света за 80 дней / Around the World in 80 Days [Приключения, комедия, мелодрама, семейный, 1956] WEBRip 1080р, Mvo

salma3

10 | 27

15.87 ГБ


Начать новую тему Ответить на тему  [ 1 сообщение ] 




Для Мосгорсуда, Роскомнадзора и рекламодателей:: mosgorsud-torrent[собачка]yandex.ru
cron